Лучшее во мне | The Best of Me | 2014 | BDRip - ExKinoRay Одобрено администрацией

Участники
  • Раздают3
  • Качают0
  • Просмотров501
  • Скачали2
  • Комментариев5
  • Список файлов1
Залил раздачу
Характеристики
Вес1.46 GB (1,572,777,984)
Залит2015-02-02 16:31:08 Обновлено2015-02-02 16:31:08
Сетевая Нет
   http://s014.radikal.ru/i328/1410/76/bbeb05031521.gif
Чтобы скачать, необходимо авторизоваться или зарегистрироваться.
Статус: Одобрено администрацией
Хотите видеть детали Раздачи пройдите авторизацию или регистрацию!

Спасибо за понимание...
Просьба отключить блокировщики рекламы на странице скриншотов по адресу: http://3.lostpic.net/, этим Вы поможете существованию проекта. Заранее спасибо!
Общее
Полное имя                               : D:\Видео\The.Best.Of.Me.2014.Rus.Transfer.BDRip 1.46 .by Vovan366(ExKinoRay).avi
Формат                                   : AVI
Формат/Информация                        : Audio Video Interleave
Размер файла                             : 1,46 Гбайт
Продолжительность                        : 1 ч. 57 м.
Общий поток                              : 1782 Кбит/сек
Программа кодирования                    : VirtualDubMod 1.5.10.3 (build 2550/release)
Библиотека кодирования                   : VirtualDubMod build 2550/release

Видео
Идентификатор                            : 0
Формат                                   : MPEG-4 Visual
Профиль формата                          : Advanced Simple@L5
Параметр BVOP формата                    : 2
Параметр QPel формата                    : Нет
Параметр GMC формата                     : Без точки перехода
Параметр матрицы формата                 : Выборочная
Идентификатор кодека                     : XVID
Идентификатор кодека/Подсказка           : XviD
Продолжительность                        : 1 ч. 57 м.
Битрейт                                  : 1389 Кбит/сек
Ширина                                   : 720 пикселей
Высота                                   : 320 пикселей
Соотношение сторон                       : 2,25:1
Частота кадров                           : 24,000 кадра/сек
Цветовое пространство                    : YUV
Субдискретизация насыщенности            : 4:2:0
Битовая глубина                          : 8 бит
Тип развёртки                            : Прогрессивная
Метод сжатия                             : С потерями
Бит/(Пиксели*Кадры)                      : 0.251
Размер потока                            : 1,14 Гбайт (78%)
Библиотека кодирования                   : XviD 73

Аудио
Идентификатор                            : 1
Формат                                   : AC-3
Формат/Информация                        : Audio Coding 3
Расширение режима                        : CM (complete main)
Параметр Endianness формата              : Big
Идентификатор кодека                     : 2000
Продолжительность                        : 1 ч. 57 м.
Вид битрейта                             : Постоянный
Битрейт                                  : 384 Кбит/сек
Каналы                                   : 6 каналов
Расположение каналов                     : Front: L C R, Side: L R, LFE
Частота                                  : 48,0 КГц
Битовая глубина                          : 16 бит
Метод сжатия                             : С потерями
Размер потока                            : 323 Мбайт (22%)
Выравнивание                             : Разделение по промежуткам
Продолжительность промежутка             : 42  мс. (1,00 видеокадр)
Время предзагрузки промежутка            : 500  мс.


Сравнение локализованного диска
     

Vovan366 | 2015-02-07 09:58:24
 
SerGV писал
Vovan366 писал
Звук сам переделал с DTS дороги, при этом не убив его. Сначала раскидал на Вавки и собрал другой прогой.Как учила ты Enigma

Всё правильно, так и надо! а лишние мс вырезали?
при декодирование в wavs любая софтина добавляет тишину в начало, так же и при сборке в ас3. В итоге, мы имеем лишнее мс при декодирование + лишнее мс при кодировании в ас3
Да нет я ничего не вырезаю, после проверяю на рассинхрон и пока всё совпадает постоянно
Пример сборки


Vovan366 писал
Звук сам переделал с DTS дороги, при этом не убив его.

тут смотря чем еще делали (декодированием в waws)... можно и убить)

  |

SerGV | 2015-02-06 10:33:45
 
Vovan366 писал
Звук сам переделал с DTS дороги, при этом не убив его. Сначала раскидал на Вавки и собрал другой прогой.Как учила ты Enigma

Всё правильно, так и надо! а лишние мс вырезали?
при декодирование в wavs любая софтина добавляет тишину в начало, так же и при сборке в ас3. В итоге, мы имеем лишнее мс при декодирование + лишнее мс при кодировании в ас3

Vovan366 писал
Звук сам переделал с DTS дороги, при этом не убив его.

тут смотря чем еще делали (декодированием в waws)... можно и убить)
  |

Vovan366 | 2015-02-03 19:19:16
 
Gomer писал
Можно вопрос зачем перегонять в Wav если можно сразу сделать в AC3

Да только звук убьёте. Спросите у Энигмы или у знающих риперов. Я уже сделал сам более 500раздач.
  |

Gomer | 2015-02-03 10:16:08
 
Можно вопрос зачем перегонять в Wav если можно сразу сделать в AC3
  |

Vovan366 | 2015-02-02 16:32:50
 
Звук сам переделал с DTS дороги, при этом не убив его. Сначала раскидал на Вавки и собрал другой прогой.Как учила ты Enigma
  |

Страницы:  1 
Привет, гость
- Запомнить
Регистрация
Информация

Торрент трекер ExKinoRay.TV

Здесь вы можете скачать новые фильмы, сериалы, игры, музыку, софт и многое другое. Большая скорость скачивания на мультитрекерных раздачах. Всё абсолютно бесплатно.