Лицом к лицу | 1986 | SATRip (AVC) Одобрено администрацией

Участники
  • Раздают1
  • Качают0
  • Просмотров161
  • Скачали7
  • Комментариев1
  • Список файлов2
Залил раздачу
Поблагодарить
Характеристики
Вес1.84 GB (1,971,768,841)
Залит2016-02-14 04:10:48 Обновлено2016-02-14 04:10:48
Сетевая Нет
  http://i60.fastpic.ru/big/2015/0501/8b/90b393018f9e25698c257bebc3adcd8b.gif
Чтобы скачать, необходимо авторизоваться или зарегистрироваться.
Статус: Одобрено администрацией
Хотите видеть детали Раздачи пройдите авторизацию или регистрацию!

Спасибо за понимание...
Общее
Уникальный идентификатор : 234114891369258759137545510654859353116 (0xB020E35219B0FE0DB1EB637FEEF91C1C)
Полное имя : R:МОИ РИПЫЛицом к лицу_1986-SATRip-AVCЛицом к лицу-1.mkv
Формат : Matroska
Версия формата : Version 2
Размер файла : 857 Мбайт
Продолжительность : 1 ч. 0 м.
Общий поток : 1994 Кбит/сек
Дата кодирования : UTC 2015-01-25 23:32:51
Программа кодирования : mkvmerge v5.8.0 ('No Sleep / Pillow') built on Sep 2 2012 15:37:04
Библиотека кодирования : libebml v1.2.3 + libmatroska v1.3.0

Видео
Идентификатор : 1
Формат : AVC
Формат/Информация : Advanced Video Codec
Профиль формата : High@L4.1
Параметр CABAC формата : Да
Параметр ReFrames формата : 14 кадров
Идентификатор кодека : V_MPEG4/ISO/AVC
Продолжительность : 1 ч. 0 м.
Битрейт : 1800 Кбит/сек
Ширина : 698 пикселей
Высота : 556 пикселей
Соотношение сторон : 4:3
Соотношение сторон в оригинале : 4:3
Режим частоты кадров : Постоянный
Частота кадров : 25,000 кадров/сек
Цветовое пространство : YUV
Субдискретизация насыщенности : 4:2:0
Битовая глубина : 8 бит
Тип развёртки : Прогрессивная
Бит/(Пиксели*Кадры) : 0.186
Размер потока : 758 Мбайт (88%)
Библиотека кодирования : x264 core 142 r2431 ac76440
Настройки программы : cabac=1 / ref=14 / deblock=1:-2:-2 / analyse=0x3:0x133 / me=umh / subme=10 / psy=1 / psy_rd=1.05:0.15 / mixed_ref=1 / me_range=32 / chroma_me=1 / trellis=2 / 8x8dct=1 / cqm=0 / deadzone=21,11 / fast_pskip=0 / chroma_qp_offset=-3 / threads=12 / lookahead_threads=1 / sliced_threads=0 / nr=0 / decimate=0 / interlaced=0 / bluray_compat=0 / constrained_intra=0 / bframes=6 / b_pyramid=2 / b_adapt=2 / b_bias=0 / direct=3 / weightb=1 / open_gop=0 / weightp=2 / keyint=250 / keyint_min=25 / scenecut=40 / intra_refresh=0 / rc=2pass / mbtree=0 / bitrate=1800 / ratetol=1.0 / qcomp=0.60 / qpmin=0 / qpmax=39 / qpstep=4 / cplxblur=20.0 / qblur=0.5 / ip_ratio=1.40 / pb_ratio=1.30 / aq=1:1.00
Язык : English
Default : Да
Forced : Нет
Основные цвета : BT.601 PAL
Характеристики трансфера : BT.470 System B, BT.470 System G
Коэффициенты матрицы : BT.601

Аудио
Идентификатор : 2
Формат : AC-3
Формат/Информация : Audio Coding 3
Расширение режима : CM (complete main)
Параметр Endianness формата : Big
Идентификатор кодека : A_AC3
Продолжительность : 1 ч. 0 м.
Вид битрейта : Постоянный
Битрейт : 192 Кбит/сек
Каналы : 2 канала
Расположение каналов : Front: L R
Частота : 48,0 КГц
Битовая глубина : 16 бит
Метод сжатия : С потерями
Задержка видео : 150 мс.
Размер потока : 82,6 Мбайт (10%)
Default : Да
Forced : Нет
http://i75.fastpic.ru/thumb/2016/0214/62/2d8fb9b6a18d8f54abc25fb527a82162.jpeg  http://i74.fastpic.ru/thumb/2016/0214/1f/772908272fdea9155a004eb2afd76e1f.jpeg  http://i74.fastpic.ru/thumb/2016/0214/d6/28f040c414d2d0564f2f0bb4eb39e1d6.jpeg  http://i75.fastpic.ru/thumb/2016/0214/cd/5c6fea75cf455eb8bdf50bab955a8ccd.jpeg  http://i76.fastpic.ru/thumb/2016/0214/98/a09ace02441687449c3c79b14451f498.jpeg  http://i76.fastpic.ru/thumb/2016/0214/7e/f746e13972c0806f035e1d0efc9b4e7e.jpeg  
     
Похожие раздачиРазмер
Лицом к лицу с Али | Facing Ali | 2009 | DVDRip | MVO1.36 GB

al1ksandr | 2016-02-14 11:54:00
 
Отличный фильм! Прекрасная экранизация романа Юлиана Семенова. Книга написана на основе реальных событий в которых участвовал сам Семенов. Режиссер, сценарий и актерская работа - все на высоте. Спасибо за релиз filbi 1976.
  |

Страницы:  1 
Привет, гость
- Запомнить
Регистрация
Информация

Торрент трекер ExKinoRay.TV

Здесь вы можете скачать новые фильмы, сериалы, игры, музыку, софт и многое другое. Большая скорость скачивания на мультитрекерных раздачах. Всё абсолютно бесплатно.