Мэри Поппинс, до свидания! (2 серии из 2) | 1983 | DVDRip (AVC) Одобрено администрацией

Участники
  • Раздают13
  • Качают0
  • Просмотров168
  • Скачали7
  • Комментариев4
  • Список файлов2
Залил раздачу
Характеристики
Вес3.11 GB (3,334,324,900)
Залит2016-03-13 03:21:50 Обновлено2016-03-13 03:21:50
Сетевая Да
  http://i60.fastpic.ru/big/2015/0501/8b/90b393018f9e25698c257bebc3adcd8b.gif
Чтобы скачать, необходимо авторизоваться или зарегистрироваться.
Статус: Одобрено администрацией
Хотите видеть детали Раздачи пройдите авторизацию или регистрацию!

Спасибо за понимание...
Общее
Уникальный идентификатор                 : 227128807558104639889391367004435479042 (0xAADF6ACBB67FBCE89501F3E95FD37A02)
Полное имя                               : R:\МОИ РИПЫ\Мэри Поппинс, до свидания!_1983-DVDRip-AVC\Мэри Попинс-1.mkv
Формат                                   : Matroska
Версия формата                           : Version 2
Размер файла                             : 1,41 Гбайт
Продолжительность                        : 1 ч. 3 м.
Общий поток                              : 3200 Кбит/сек
Дата кодирования                         : UTC 2014-09-24 12:35:12
Программа кодирования                    : mkvmerge v5.2.0 ('I can't explain') built on Dec 18 2011 18:12:03
Библиотека кодирования                   : libebml v1.2.3 + libmatroska v1.3.0

Видео
Идентификатор                            : 1
Формат                                   : AVC
Формат/Информация                        : Advanced Video Codec
Профиль формата                          : High@L4.1
Параметр CABAC формата                   : Да
Параметр ReFrames формата                : 14 кадров
Идентификатор кодека                     : V_MPEG4/ISO/AVC
Продолжительность                        : 1 ч. 3 м.
Битрейт                                  : 2750 Кбит/сек
Ширина                                   : 716 пикселей
Высота                                   : 572 пикселя
Соотношение сторон                       : 4:3
Соотношение сторон в оригинале           : 4:3
Режим частоты кадров                     : Постоянный
Частота кадров                           : 25,000 кадров/сек
Цветовое пространство                    : YUV
Субдискретизация насыщенности            : 4:2:0
Битовая глубина                          : 8 бит
Тип развёртки                            : Прогрессивная
Бит/(Пиксели*Кадры)                      : 0.269
Размер потока                            : 1,18 Гбайт (84%)
Библиотека кодирования                   : x264 core 130 r2273 b3065e6
Настройки программы                      : cabac=1 / ref=14 / deblock=1:-2:-2 / analyse=0x3:0x133 / me=umh / subme=11 / psy=1 / psy_rd=1.10:0.15 / mixed_ref=1 / me_range=24 / chroma_me=1 / trellis=2 / 8x8dct=1 / cqm=0 / deadzone=21,11 / fast_pskip=0 / chroma_qp_offset=-3 / threads=12 / lookahead_threads=1 / sliced_threads=0 / nr=0 / decimate=0 / interlaced=0 / bluray_compat=0 / constrained_intra=0 / bframes=6 / b_pyramid=2 / b_adapt=2 / b_bias=0 / direct=3 / weightb=1 / open_gop=0 / weightp=2 / keyint=250 / keyint_min=25 / scenecut=40 / intra_refresh=0 / rc=2pass / mbtree=0 / bitrate=2750 / ratetol=1.0 / qcomp=0.65 / qpmin=0 / qpmax=39 / qpstep=4 / cplxblur=20.0 / qblur=0.5 / ip_ratio=1.40 / pb_ratio=1.30 / aq=1:1.00
Язык                                     : English
Default                                  : Да
Forced                                   : Нет
Основные цвета                           : BT.601 PAL
Характеристики трансфера                 : BT.470 System B, BT.470 System G
Коэффициенты матрицы                     : BT.601

Аудио
Идентификатор                            : 2
Формат                                   : AC-3
Формат/Информация                        : Audio Coding 3
Расширение режима                        : CM (complete main)
Параметр Endianness формата              : Big
Идентификатор кодека                     : A_AC3
Продолжительность                        : 1 ч. 3 м.
Вид битрейта                             : Постоянный
Битрейт                                  : 448 Кбит/сек
Каналы                                   : 6 каналов
Расположение каналов                     : Front: L C R, Side: L R, LFE
Частота                                  : 48,0 КГц
Битовая глубина                          : 16 бит
Метод сжатия                             : С потерями
Размер потока                            : 202 Мбайт (14%)
Язык                                     : Russian
Default                                  : Да
Forced                                   : Нет

http://lostpix.com/thumbs/2016-03/13/3l2o9wt9uo2gvigx45tmo46eh.png http://lostpix.com/thumbs/2016-03/13/psmgqz92qm1d7yxlq47y0ts5d.png http://lostpix.com/thumbs/2016-03/13/5i81nef6rmlgkdwx41urn68h2.png http://lostpix.com/thumbs/2016-03/13/whlecp0kmzyr6t0i5gs94g2t2.png http://lostpix.com/thumbs/2016-03/13/j8wgfo4m19pf8zsxnas8013fj.png http://lostpix.com/thumbs/2016-03/13/19qsrh2o58tj270zlfwbxkpx3.png
     
Похожих раздач нет

filbi1976 | 2016-03-15 19:34:19
 
aors10 писал
Картинка четкая но слишком зетемненная, на задних планах ничего не видно

Давно делал, уже не вспомню, но подобные вещи как правило бывают в так называемой "реставрации" от КП, после которой нужно снова делать реставрацию, да ещё пытаться исправить добавленные ими болячки в виде завышенного контраста в результате которого изчезают полутона и натуральность в некоторых местах фильма.
P.S.
Мне бы эти исходники, думаю у меня в домашних условиях и на конвертере XviD4PSP 5 получилось бы лучше.
  |

| 2016-03-15 12:09:38
 
Картинка четкая но слишком зетемненная, на задних планах ничего не видно
  |

al1ksandr | 2016-03-13 13:34:58
 
Фильм очень положительный и добрый. Очень хорошо снят,  действительно для детей, и пусть дети выносят ему оценку. В свое время, когда я был ребенком, с удовольствием смотрел этот фильм и по прошествии времени, уже повзрослев, все равно с удовольствием его смотрю. В картине снимаются в основном исключительно "Звезды" с большой буквы отечественного советского кинематографа и играют исключительно. Мэри Поппинс в исполнении Наталии Андрейченко - элегантна, обаятельна, спокойна, сдержанна и очень мила. Актриса создала очень интересный образ. Хорош Олег Табаков в роли мисс Эндрю. А какие замечательные песни на великолепную музыку Максима Дунаевского звучат в этом фильме! Шедевр! Спасибо за релиз filbi 1976.
  |

mister.hats | 2016-03-13 12:25:42
 
filbi1976 большое спасибо.Отличный фильм.
  |

Страницы:  1 
Привет, гость
- Запомнить
Регистрация
Информация

Торрент трекер ExKinoRay.TV

Здесь вы можете скачать новые фильмы, сериалы, игры, музыку, софт и многое другое. Большая скорость скачивания на мультитрекерных раздачах. Всё абсолютно бесплатно.