Фронт в тылу врага (2 серии из 2) | 1981 | DVDRip (AVC) - ExKinoRay Одобрено администрацией

Участники
  • Раздают0
  • Качают0
  • Просмотров184
  • Скачали1
  • Комментариев0
  • Список файлов2
Залил раздачу
Поблагодарить
Характеристики
Вес2.53 GB (2,719,338,241)
Залит2016-04-01 10:05:58 Обновлено2016-04-01 10:05:58
Сетевая Нет
  http://i60.fastpic.ru/big/2015/0501/8b/90b393018f9e25698c257bebc3adcd8b.gif
Чтобы скачать, необходимо авторизоваться или зарегистрироваться.
Статус: Одобрено администрацией
Хотите видеть детали Раздачи пройдите авторизацию или регистрацию!

Спасибо за понимание...
Просьба отключить блокировщики рекламы на странице скриншотов по адресу: http://3.lostpic.net/, этим Вы поможете существованию проекта. Заранее спасибо!
http://rating.kinopoisk.ru/44439.gif
Плавающее наполнение кадра, первые 26 минут 1-й серии с бортами.

Инфо

raw [info]: 696x392p 825:757 @ 25/1 fps (cfr)
x264 [info]: using SAR=825/757
x264 [info]: using cpu capabilities: MMX2 SSE2Fast SSSE3 SSE4.2 AVX
x264 [info]: profile High, level 4.1
                                                                              
x264 [info]: frame I:681   Avg QP:17.06  size: 52851
x264 [info]: frame P:28084 Avg QP:19.91  size: 21936
x264 [info]: frame B:87899 Avg QP:21.56  size:  7512
===========================================================================================================
Общее
Уникальный идентификатор                 : 195359332869276462472702666800557755750 (0x92F8D6C2BAE6F016B5267501F3D48D66)
Полное имя                               : G:\МОИ РИПЫ\Фронт в тылу врага_1981-DVDRip-AVC\Фронт в тылу врага-1.mkv
Формат                                   : Matroska
Версия формата                           : Version 2
Размер файла                             : 1,21 Гбайт
Продолжительность                        : 1 ч. 12 м.
Общий поток                              : 2394 Кбит/сек
Дата кодирования                         : UTC 2014-12-13 15:49:55
Программа кодирования                    : mkvmerge v5.2.0 ('I can't explain') built on Dec 18 2011 18:12:03
Библиотека кодирования                   : libebml v1.2.3 + libmatroska v1.3.0

Видео
Идентификатор                            : 1
Формат                                   : AVC
Формат/Информация                        : Advanced Video Codec
Профиль формата                          : High@L4.1
Параметр CABAC формата                   : Да
Параметр ReFrames формата                : 16 кадров
Идентификатор кодека                     : V_MPEG4/ISO/AVC
Продолжительность                        : 1 ч. 12 м.
Битрейт                                  : 2200 Кбит/сек
Ширина                                   : 696 пикселей
Высота                                   : 392 пикселя
Соотношение сторон                       : 1,934
Соотношение сторон в оригинале           : 1,935
Режим частоты кадров                     : Постоянный
Частота кадров                           : 25,000 кадров/сек
Цветовое пространство                    : YUV
Субдискретизация насыщенности            : 4:2:0
Битовая глубина                          : 8 бит
Тип развёртки                            : Прогрессивная
Бит/(Пиксели*Кадры)                      : 0.323
Размер потока                            : 1,08 Гбайт (90%)
Библиотека кодирования                   : x264 core 142 r2431 ac76440
Настройки программы                      : cabac=1 / ref=16 / deblock=1:-2:-2 / analyse=0x3:0x133 / me=umh / subme=10 / psy=1 / psy_rd=1.05:0.20 / mixed_ref=1 / me_range=24 / chroma_me=1 / trellis=2 / 8x8dct=1 / cqm=0 / deadzone=21,11 / fast_pskip=0 / chroma_qp_offset=-3 / threads=12 / lookahead_threads=3 / sliced_threads=0 / nr=0 / decimate=0 / interlaced=0 / bluray_compat=0 / constrained_intra=0 / bframes=10 / b_pyramid=2 / b_adapt=2 / b_bias=0 / direct=1 / weightb=1 / open_gop=0 / weightp=2 / keyint=250 / keyint_min=25 / scenecut=40 / intra_refresh=0 / rc=2pass / mbtree=0 / bitrate=2200 / ratetol=1.0 / qcomp=0.60 / qpmin=0 / qpmax=39 / qpstep=4 / cplxblur=20.0 / qblur=0.5 / ip_ratio=1.40 / pb_ratio=1.30 / aq=1:1.00
Язык                                     : English
Default                                  : Да
Forced                                   : Нет
Основные цвета                           : BT.601 PAL
Характеристики трансфера                 : BT.470 System B, BT.470 System G
Коэффициенты матрицы                     : BT.601
colour_range                             : Limited

Аудио
Идентификатор                            : 2
Формат                                   : AC-3
Формат/Информация                        : Audio Coding 3
Расширение режима                        : CM (complete main)
Параметр Endianness формата              : Big
Идентификатор кодека                     : A_AC3
Продолжительность                        : 1 ч. 12 м.
Вид битрейта                             : Постоянный
Битрейт                                  : 192 Кбит/сек
Каналы                                   : 2 канала
Расположение каналов                     : Front: L R
Частота                                  : 48,0 КГц
Битовая глубина                          : 16 бит
Метод сжатия                             : С потерями
Размер потока                            : 99,0 Мбайт (8%)
Язык                                     : Russian
Default                                  : Да
Forced                                   : Нет
     


Привет, гость
- Запомнить
Регистрация
Информация

Торрент трекер ExKinoRay.TV

Здесь вы можете скачать новые фильмы, сериалы, игры, музыку, софт и многое другое. Большая скорость скачивания на мультитрекерных раздачах. Всё абсолютно бесплатно.