Взять живым (1-3 серии из 3) | 1982 | DVDRip (AVC) - ExKinoRay Одобрено администрацией

Участники
  • Раздают0
  • Качают0
  • Просмотров216
  • Скачали6
  • Комментариев2
  • Список файлов3
Залил раздачу
Характеристики
Вес4.00 GB (4,294,125,227)
Залит2016-04-02 09:45:39 Обновлено2016-04-02 09:45:39
Сетевая Нет
  http://i60.fastpic.ru/big/2015/0501/8b/90b393018f9e25698c257bebc3adcd8b.gif
Чтобы скачать, необходимо авторизоваться или зарегистрироваться.
Статус: Одобрено администрацией
Хотите видеть детали Раздачи пройдите авторизацию или регистрацию!

Спасибо за понимание...
Просьба отключить блокировщики рекламы на странице скриншотов по адресу: http://3.lostpic.net/, этим Вы поможете существованию проекта. Заранее спасибо!
http://rating.kinopoisk.ru/453126.gif

Инфо

raw [info]: 694x572p 16:15 @ 25/1 fps (cfr)
x264 [info]: using SAR=16/15
x264 [info]: using cpu capabilities: MMX2 SSE2Fast SSSE3 SSE4.2 AVX
x264 [info]: profile High, level 4.1
                                                                              
x264 [info]: frame I:559   Avg QP:16.20  size: 63705
x264 [info]: frame P:24578 Avg QP:19.62  size: 27014
x264 [info]: frame B:75589 Avg QP:21.70  size:  8334
=========================================================================================================
Общее
Уникальный идентификатор                 : 237276272858539806536814907608752495377 (0xB281BF7650824AC5A9B33D3800949B11)
Полное имя                               : I:\МОИ РИПЫ\Взять живым_1982-DVDRip-AVC\Взять живым-1.mkv
Формат                                   : Matroska
Версия формата                           : Version 2
Размер файла                             : 1,33 Гбайт
Продолжительность                        : 1 ч. 7 м.
Общий поток                              : 2834 Кбит/сек
Дата кодирования                         : UTC 2014-12-04 23:57:13
Программа кодирования                    : mkvmerge v5.2.0 ('I can't explain') built on Dec 18 2011 18:12:03
Библиотека кодирования                   : libebml v1.2.3 + libmatroska v1.3.0

Видео
Идентификатор                            : 1
Формат                                   : AVC
Формат/Информация                        : Advanced Video Codec
Профиль формата                          : High@L4.1
Параметр CABAC формата                   : Да
Параметр ReFrames формата                : 15 кадров
Идентификатор кодека                     : V_MPEG4/ISO/AVC
Продолжительность                        : 1 ч. 7 м.
Битрейт                                  : 2640 Кбит/сек
Ширина                                   : 694 пикселя
Высота                                   : 572 пикселя
Соотношение сторон                       : 1,294
Режим частоты кадров                     : Постоянный
Частота кадров                           : 25,000 кадров/сек
Цветовое пространство                    : YUV
Субдискретизация насыщенности            : 4:2:0
Битовая глубина                          : 8 бит
Тип развёртки                            : Прогрессивная
Бит/(Пиксели*Кадры)                      : 0.266
Размер потока                            : 1,21 Гбайт (91%)
Библиотека кодирования                   : x264 core 142 r2431 ac76440
Настройки программы                      : cabac=1 / ref=15 / deblock=1:-2:-2 / analyse=0x3:0x133 / me=umh / subme=10 / psy=1 / psy_rd=1.05:0.15 / mixed_ref=1 / me_range=24 / chroma_me=1 / trellis=2 / 8x8dct=1 / cqm=0 / deadzone=21,11 / fast_pskip=0 / chroma_qp_offset=-3 / threads=12 / lookahead_threads=2 / sliced_threads=0 / nr=0 / decimate=0 / interlaced=0 / bluray_compat=0 / constrained_intra=0 / bframes=7 / b_pyramid=2 / b_adapt=2 / b_bias=0 / direct=1 / weightb=1 / open_gop=0 / weightp=2 / keyint=250 / keyint_min=25 / scenecut=40 / intra_refresh=0 / rc=2pass / mbtree=0 / bitrate=2640 / ratetol=1.0 / qcomp=0.60 / qpmin=0 / qpmax=39 / qpstep=4 / cplxblur=20.0 / qblur=0.5 / ip_ratio=1.40 / pb_ratio=1.30 / aq=1:0.90
Язык                                     : English
Default                                  : Да
Forced                                   : Нет
Основные цвета                           : BT.601 PAL
Характеристики трансфера                 : BT.470 System B, BT.470 System G
Коэффициенты матрицы                     : BT.601
colour_range                             : Limited

Аудио
Идентификатор                            : 2
Формат                                   : AC-3
Формат/Информация                        : Audio Coding 3
Расширение режима                        : CM (complete main)
Параметр Endianness формата              : Big
Идентификатор кодека                     : A_AC3
Продолжительность                        : 1 ч. 7 м.
Вид битрейта                             : Постоянный
Битрейт                                  : 192 Кбит/сек
Каналы                                   : 2 канала
Расположение каналов                     : Front: L R
Частота                                  : 48,0 КГц
Битовая глубина                          : 16 бит
Метод сжатия                             : С потерями
Задержка видео                           : 64 мс.
Размер потока                            : 92,2 Мбайт (7%)
Язык                                     : Russian
Default                                  : Да
Forced                                   : Нет
     

xtc26 | 2016-04-02 11:12:42
 
bortnikov писал
Помогите скачать фильм, пожалуйста.

Добро утро , раздача сетевая , вижу там два сида , но если раздаваться не будет , надо подождать автора раздачи , в общем решим этот вопрос )
  |

bortnikov | 2016-04-02 10:34:54
 
Помогите скачать фильм, пожалуйста.
  |

Страницы:  1 
Привет, гость
- Запомнить
Регистрация
Информация

Торрент трекер ExKinoRay.TV

Здесь вы можете скачать новые фильмы, сериалы, игры, музыку, софт и многое другое. Большая скорость скачивания на мультитрекерных раздачах. Всё абсолютно бесплатно.