Не брать живым | Green Zone | 2010 | BDRip (AVC) | Dub, AVO (Сербин) - ExKinoRay Одобрено администрацией

Участники
  • Раздают2
  • Качают3
  • Просмотров469
  • Скачали1
  • Комментариев0
  • Список файлов1
Залил раздачу
Неизвестен
Поблагодарить
Характеристики
Вес3.08 GB (3,305,485,095)
Залит2015-02-06 21:45:41 Обновлено2015-02-06 21:45:41
Сетевая Нет
   http://s008.radikal.ru/i306/1502/81/bcbaeb9386af.gif   http://s017.radikal.ru/i424/1502/f1/20aaec6f9866.gif
Чтобы скачать, необходимо авторизоваться или зарегистрироваться.
Статус: Одобрено администрацией
Хотите видеть детали Раздачи пройдите авторизацию или регистрацию!

Спасибо за понимание...
Просьба отключить блокировщики рекламы на странице скриншотов по адресу: http://3.lostpic.net/, этим Вы поможете существованию проекта. Заранее спасибо!
http://rating.kinopoisk.ru/278328.gif http://i65.fastpic.ru/big/2014/1201/ca/01f7504e3adb0635c65ff7e1f31efdca.jpeg

Rip by Enigma-Vladislav71
Дата релиза: 17.11.2012

Аудио 1: Русский (AC3, 6 ch, 448 Кбит/с) - дубляж, Blu-Ray CEE
Аудио 2: Русский (AC3, 6 ch, 448 Кбит/с) - одноголосый, Ю.Сербин
Аудио 3: Английский (AC3, 6 ch, 448 Кбит/с)

Общее
Общее
Уникальный идентификатор : 185988436924902691404878016234588333145 (0x8BEC11EB695928BD8C6B20F0C359E459)
Полное имя : G:2Ne.brat.zhivym.2010.x264.BDRip.(AVC).ExKinoRay.mkv
Формат : Matroska
Версия формата : Version 2
Размер файла : 3,08 Гбайт
Продолжительность : 1 ч. 54 м.
Общий поток : 3840 Кбит/сек
Название фильма : Ne.brat.zhivym.2010.x264.BDRip.(AVC).ExKinoRay
Дата кодирования : UTC 2012-11-17 10:04:31
Программа кодирования : mkvmerge v4.0.0 ('The Stars were mine') сборка от Jun 6 2010 16:18:42
Библиотека кодирования : libebml v1.0.0 + libmatroska v1.0.0

Видео
Идентификатор : 1
Формат : AVC
Формат/Информация : Advanced Video Codec
Профиль формата : High@L4.1
Параметр CABAC формата : Да
Параметр ReFrames формата : 8 кадров
Идентификатор кодека : V_MPEG4/ISO/AVC
Продолжительность : 1 ч. 54 м.
Битрейт : 2500 Кбит/сек
Ширина : 1024 пикселя
Высота : 426 пикселей
Соотношение сторон : 2,40:1
Частота кадров : 23,976 кадра/сек
Цветовое пространство : YUV
Субдискретизация насыщенности : 4:2:0
Битовая глубина : 8 бит
Тип развёртки : Прогрессивная
Бит/(Пиксели*Кадры) : 0.239
Размер потока : 1,94 Гбайт (63%)
Заголовок : Rip by Enigma-Vladislav71
Библиотека кодирования : x264 core 116 r2074 2641b9e
Настройки программы : cabac=1 / ref=8 / deblock=1:-2:-2 / analyse=0x3:0x133 / me=umh / subme=11 / psy=1 / psy_rd=1.00:0.00 / mixed_ref=1 / me_range=48 / chroma_me=1 / trellis=2 / 8x8dct=1 / cqm=0 / deadzone=21,11 / fast_pskip=0 / chroma_qp_offset=-2 / threads=3 / sliced_threads=0 / nr=0 / decimate=0 / interlaced=0 / bluray_compat=0 / constrained_intra=0 / bframes=8 / b_pyramid=2 / b_adapt=2 / b_bias=0 / direct=3 / weightb=1 / open_gop=0 / weightp=2 / keyint=240 / keyint_min=23 / scenecut=40 / intra_refresh=0 / rc=2pass / mbtree=0 / bitrate=2500 / ratetol=1.0 / qcomp=0.60 / qpmin=10 / qpmax=51 / qpstep=4 / cplxblur=20.0 / qblur=0.5 / ip_ratio=1.40 / pb_ratio=1.30 / aq=2:1.00
Язык : English
Default : Нет
Forced : Нет

Аудио #1
Идентификатор : 2
Формат : AC-3
Формат/Информация : Audio Coding 3
Расширение режима : CM (complete main)
Идентификатор кодека : A_AC3
Продолжительность : 1 ч. 54 м.
Вид битрейта : Постоянный
Битрейт : 448 Кбит/сек
Каналы : 6 каналов
Расположение каналов : Front: L C R, Side: L R, LFE
Частота : 48,0 КГц
Битовая глубина : 16 бит
Метод сжатия : С потерями
Размер потока : 368 Мбайт (12%)
Заголовок : дуб (CEE Blu-Ray)
Язык : Russian
Default : Да
Forced : Нет

Аудио #2
Идентификатор : 3
Формат : AC-3
Формат/Информация : Audio Coding 3
Расширение режима : CM (complete main)
Идентификатор кодека : A_AC3
Продолжительность : 1 ч. 54 м.
Вид битрейта : Постоянный
Битрейт : 448 Кбит/сек
Каналы : 6 каналов
Расположение каналов : Front: L C R, Side: L R, LFE
Частота : 48,0 КГц
Битовая глубина : 16 бит
Метод сжатия : С потерями
Размер потока : 368 Мбайт (12%)
Заголовок : одноголосый (Юрий Сербин)
Язык : Russian
Default : Нет
Forced : Нет

Аудио #3
Идентификатор : 4
Формат : AC-3
Формат/Информация : Audio Coding 3
Расширение режима : CM (complete main)
Идентификатор кодека : A_AC3
Продолжительность : 1 ч. 54 м.
Вид битрейта : Постоянный
Битрейт : 448 Кбит/сек
Каналы : 6 каналов
Расположение каналов : Front: L C R, Side: L R, LFE
Частота : 48,0 КГц
Битовая глубина : 16 бит
Метод сжатия : С потерями
Размер потока : 368 Мбайт (12%)
Заголовок : Английский
Язык : English
Default : Нет
Forced : Нет

Текст #1
Идентификатор : 5
Формат : UTF-8
Идентификатор кодека : S_TEXT/UTF8
Идентификатор кодека/Информация : UTF-8 Plain Text
Язык : Russian
Default : Да
Forced : Нет

Текст #2
Идентификатор : 6
Формат : UTF-8
Идентификатор кодека : S_TEXT/UTF8
Идентификатор кодека/Информация : UTF-8 Plain Text
Язык : English
Default : Нет
Forced : Нет

Меню
00:00:00.000 : en:Chapter 1
00:02:46.457 : en:Chapter 2
00:10:00.975 : en:Chapter 3
00:16:36.370 : en:Chapter 4
00:21:01.009 : en:Chapter 5
00:25:39.871 : en:Chapter 6
00:33:30.299 : en:Chapter 7
00:40:27.508 : en:Chapter 8
00:45:25.431 : en:Chapter 9
00:50:59.222 : en:Chapter 10
00:55:15.270 : en:Chapter 11
01:00:21.284 : en:Chapter 12
01:05:09.989 : en:Chapter 13
01:11:02.508 : en:Chapter 14
01:18:28.620 : en:Chapter 15
01:22:58.264 : en:Chapter 16
01:27:00.882 : en:Chapter 17
01:34:39.715 : en:Chapter 18
01:39:15.658 : en:Chapter 19
01:44:58.625 : en:Chapter 20
01:54:46.170 : en:Chapter 21

     
Похожих раздач нет


Привет, гость
- Запомнить
Регистрация
Информация

Торрент трекер ExKinoRay.TV

Здесь вы можете скачать новые фильмы, сериалы, игры, музыку, софт и многое другое. Большая скорость скачивания на мультитрекерных раздачах. Всё абсолютно бесплатно.