Дачная поездка сержанта Цыбули | 1979 | SATRip (AVC) - ExKinoRay Одобрено администрацией

Участники
  • Раздают1
  • Качают0
  • Просмотров193
  • Скачали16
  • Комментариев8
  • Список файлов1
Залил раздачу
Характеристики
Вес1.21 GB (1,303,002,873)
Залит2016-04-06 20:10:01 Обновлено2016-04-06 20:10:01
Сетевая Нет
  http://lostpix.com/img/2016-03/31/o505luw5z50nj9b8iu7jwpbru.gif
Чтобы скачать, необходимо авторизоваться или зарегистрироваться.
Статус: Одобрено администрацией
Хотите видеть детали Раздачи пройдите авторизацию или регистрацию!

Спасибо за понимание...
Просьба отключить блокировщики рекламы на странице скриншотов по адресу: http://3.lostpic.net/, этим Вы поможете существованию проекта. Заранее спасибо!
raw [info]: 720x436p 64:45 @ 25/1 fps (cfr)
x264 [info]: using SAR=64/45
x264 [info]: using cpu capabilities: MMX2 SSE2Fast SSSE3 SSE4.2 AVX
x264 [info]: profile High, level 4.1
x264 [info]: frame I:636   Avg QP:16.23  size: 54637
x264 [info]: frame P:28237 Avg QP:18.88  size: 22168
x264 [info]: frame B:80000 Avg QP:20.50  size:  6710
================================================================================================================
Общее
Уникальный идентификатор                 : 211154854108273489679177855183784983152 (0x9EDAF215A89ADB8298EE909035D33A70)
Полное имя                               : D:\Дачная поездка сержанта Цыбули_1979-SATRip-AVC.mkv
Формат                                   : Matroska
Версия формата                           : Version 2
Размер файла                             : 1,21 Гбайт
Продолжительность                        : 1 ч. 12 м.
Общий поток                              : 2394 Кбит/сек
Дата кодирования                         : UTC 2016-04-06 16:49:57
Программа кодирования                    : mkvmerge v5.8.0 ('No Sleep / Pillow') built on Sep  2 2012 15:37:04
Библиотека кодирования                   : libebml v1.2.3 + libmatroska v1.3.0

Видео
Идентификатор                            : 1
Формат                                   : AVC
Формат/Информация                        : Advanced Video Codec
Профиль формата                          : High@L4.1
Параметр CABAC формата                   : Да
Параметр ReFrames формата                : 12 кадров
Идентификатор кодека                     : V_MPEG4/ISO/AVC
Продолжительность                        : 1 ч. 12 м.
Битрейт                                  : 2200 Кбит/сек
Ширина                                   : 720 пикселей
Высота                                   : 436 пикселей
Соотношение сторон                       : 2,35:1
Режим частоты кадров                     : Постоянный
Частота кадров                           : 25,000 кадров/сек
Цветовое пространство                    : YUV
Субдискретизация насыщенности            : 4:2:0
Битовая глубина                          : 8 бит
Тип развёртки                            : Прогрессивная
Бит/(Пиксели*Кадры)                      : 0.280
Размер потока                            : 1,09 Гбайт (90%)
Библиотека кодирования                   : x264 core 148 r2638 7599210
Настройки программы                      : cabac=1 / ref=12 / deblock=1:-2:-2 / analyse=0x3:0x133 / me=umh / subme=10 / psy=1 / psy_rd=1.05:0.12 / mixed_ref=1 / me_range=32 / chroma_me=1 / trellis=2 / 8x8dct=1 / cqm=0 / deadzone=21,11 / fast_pskip=0 / chroma_qp_offset=-3 / threads=12 / lookahead_threads=3 / sliced_threads=0 / nr=0 / decimate=0 / interlaced=0 / bluray_compat=0 / constrained_intra=0 / bframes=10 / b_pyramid=2 / b_adapt=2 / b_bias=0 / direct=3 / weightb=1 / open_gop=0 / weightp=2 / keyint=250 / keyint_min=25 / scenecut=40 / intra_refresh=0 / rc=2pass / mbtree=0 / bitrate=2200 / ratetol=1.0 / qcomp=0.60 / qpmin=0 / qpmax=39 / qpstep=4 / cplxblur=20.0 / qblur=0.5 / ip_ratio=1.25 / pb_ratio=1.30 / aq=1:1.00
Язык                                     : English
Default                                  : Да
Forced                                   : Нет
Цветовой диапазон                        : Limited
Основные цвета                           : BT.601 PAL
Характеристики трансфера                 : BT.470 System B, BT.470 System G
Коэффициенты матрицы                     : BT.601

Аудио
Идентификатор                            : 2
Формат                                   : AC-3
Формат/Информация                        : Audio Coding 3
Расширение режима                        : CM (complete main)
Параметр Endianness формата              : Big
Идентификатор кодека                     : A_AC3
Продолжительность                        : 1 ч. 12 м.
Вид битрейта                             : Постоянный
Битрейт                                  : 192 Кбит/сек
Каналы                                   : 2 канала
Расположение каналов                     : Front: L R
Частота                                  : 48,0 КГц
Метод сжатия                             : С потерями
Размер потока                            : 99,7 Мбайт (8%)
Язык                                     : Russian
Default                                  : Да
Forced                                   : Нет

http://lostpix.com/thumbs/2016-04/06/jof47p9wy8cj8y56fu793ra91.png  http://lostpix.com/thumbs/2016-04/06/f4tsuk192g6mzdi1s79av1ue1.png  http://lostpix.com/thumbs/2016-04/06/nkva8om1wdk9mnlmiw2tr3ncl.png  http://lostpix.com/thumbs/2016-04/06/xyknfiaeajpvr4i1kzp93ah0r.png  http://lostpix.com/thumbs/2016-04/06/nawe3urzr67dolrga5im86hog.png  http://lostpix.com/thumbs/2016-04/06/uo4ufuv37ux8k2wap0hmyab4p.png  http://lostpix.com/thumbs/2016-04/06/n5s0iu59h6a6dsw74edrmiukm.png  http://lostpix.com/thumbs/2016-04/06/xq5avhjanc74btr9w27kw2phx.png  http://lostpix.com/thumbs/2016-04/06/4k6x4ofoy6mqci43l7tfwcvcx.png  http://lostpix.com/thumbs/2016-04/06/1gpeynr09r7n5wa80jlvt8mdo.png  http://lostpix.com/thumbs/2016-04/06/ghsl2dr8x7sqc781t86lzt6dv.png  http://lostpix.com/thumbs/2016-04/06/bpfbpxopjti5a9m65pjf8qg2z.png  

verybigpapa | 2016-04-07 22:47:26
 
Первый раз посмотрел этот фильм в октябре 1980 года, когда был проездом в Киеве. Впечатления от фильма остались самые приятные. Тем более, что главную роль исполнил Сергей Иванов ("Кузнечик" из "В бой идут одни "старики", который тогда был на пике популярности. Большое спасибо, уважаемый filbi1976, за этот привет из юности.
  |

filbi1976 | 2016-04-07 20:25:20
 
Всем пожалуйста!
Я немного взял отпуск, устал, плюс я не вижу многих из Вас в теме по Советским фильмам, или это больше не интересно, или ещё не все составили список желаемого, поэтому я и отдохну и подожду.
Что то делать пока буду, но не в таких количествах как раньше.
  |

bst78 | 2016-04-07 16:28:43
 
БОЛЬШОЕ СПАСИБО !!!
  |

сибиряк | 2016-04-07 08:01:29
 
Спасибо Сергей!
  |

Bars_St | 2016-04-07 07:31:53
 
Огромное СПАСИБО!!!
  |

Luna | 2016-04-06 21:17:18
 
Спасибо за прекрасный фильм!

http://bestgif.su/_ph/27/2/131709974.gif?1459966533
  |

al1ksandr | 2016-04-06 20:37:08
 
Отличный весёлый и добрый фильм! Прекрасный актерский состав и интересный сюжет заставляют смотреть фильм не один раз. Сергей Иванов, Маргарита Криницына и Михаил Кокшенов создали весёлый комедийный фильм о войне. Спасибо filbi 1976 за релиз с фильмом из детства.
  |

mister.hats | 2016-04-06 20:12:20
 
filbi1976 Большое спасибо.
  |

Страницы:  1 
Привет, гость
- Запомнить
Регистрация
Информация

Торрент трекер ExKinoRay.TV

Здесь вы можете скачать новые фильмы, сериалы, игры, музыку, софт и многое другое. Большая скорость скачивания на мультитрекерных раздачах. Всё абсолютно бесплатно.