Хранитель времени | Hugo | 2011 | BDRip (AVC) - ExKinoRay Одобрено администрацией

Участники
  • Раздают1
  • Качают0
  • Просмотров246
  • Скачали0
  • Комментариев0
  • Список файлов1
Залил раздачу
Неизвестен
Характеристики
Вес3.52 GB (3,778,405,390)
Залит2015-02-07 00:06:36 Обновлено2015-02-07 00:06:36
Сетевая Нет
   http://s017.radikal.ru/i405/1502/1e/5376caea6023.gif  http://s017.radikal.ru/i424/1502/f1/20aaec6f9866.gif
Чтобы скачать, необходимо авторизоваться или зарегистрироваться.
Статус: Одобрено администрацией
Хотите видеть детали Раздачи пройдите авторизацию или регистрацию!

Спасибо за понимание...
  Enigma-Vladislav71
Дата релиза: 18.12.2013
Аудио №1: Русский (AC3, 6 ch, 448 Кбит/с) - Дублированный
Аудио №2: Русский (AC3, 6 ch, 448 Кбит/с) - Профессиональный многоголосый (студия "Омикрон"
Аудио №3: Русский (AC3, 2 ch, 192 Кбит/с) - Авторский одноголосый (А.Гаврилов)
Аудио №4: Украинский (AC3, 6 ch, 448 Кбит/с) - Дублированный
Аудио №5: Английский (AC3, 6 ch, 448 Кбит/с)
________________________________________________________

Общее
Уникальный идентификатор : 242347985631452611547973744703408860616 (0xB65286352DF152179C8BA8756B266DC8)
Полное имя : E:3Hranitel.vremeni.2011.x264.BDRip.(AVC).ExKinoRay.mkv
Формат : Matroska
Размер файла : 3,52 Гбайт
Продолжительность : 2 ч. 6 м.
Общий поток : 3987 Кбит/сек
Название фильма : Hranitel.vremeni.2011.x264.BDRip.(AVC).ExKinoRay
Дата кодирования : UTC 2013-12-18 11:51:51
Программа кодирования : mkvmerge v4.0.0 ('The Stars were mine') сборка от Jun 6 2010 16:18:42
Библиотека кодирования : libebml v1.0.0 + libmatroska v1.0.0

Видео
Идентификатор : 1
Формат : AVC
Формат/Информация : Advanced Video Codec
Профиль формата : High@L4.1
Параметр CABAC формата : Да
Параметр ReFrames формата : 8 кадров
Параметры GOP формата : M=9, N=24
Идентификатор кодека : V_MPEG4/ISO/AVC
Продолжительность : 2 ч. 6 м.
Битрейт : 2000 Кбит/сек
Ширина : 1024 пикс.
Высота : 576 пикс.
Соотношение сторон : 16:9
Частота кадров : 23,976 кадр/сек
Цветовое пространство : YUV
Подвыборка цветности : 4:2:0
Битовая глубина : 8 бит
Тип развёртки : Прогрессивная
Бит/(Пиксели*Кадры) : 0.141
Размер потока : 1,70 Гбайт (48%)
Библиотека кодирования : x264 core 125 r2208 d9d2288
Настройки программы : cabac=1 / ref=8 / deblock=1:-2:-2 / analyse=0x3:0x133 / me=umh / subme=11 / psy=1 / psy_rd=1.00:0.00 / mixed_ref=1 / me_range=48 / chroma_me=1 / trellis=2 / 8x8dct=1 / cqm=0 / deadzone=21,11 / fast_pskip=0 / chroma_qp_offset=-2 / threads=3 / lookahead_threads=1 / sliced_threads=0 / nr=0 / decimate=0 / interlaced=0 / bluray_compat=0 / constrained_intra=0 / bframes=8 / b_pyramid=2 / b_adapt=2 / b_bias=0 / direct=3 / weightb=1 / open_gop=0 / weightp=2 / keyint=240 / keyint_min=23 / scenecut=40 / intra_refresh=0 / rc=2pass / mbtree=0 / bitrate=2000 / ratetol=1.0 / qcomp=0.60 / qpmin=10 / qpmax=51 / qpstep=4 / cplxblur=20.0 / qblur=0.5 / ip_ratio=1.40 / pb_ratio=1.30 / aq=1:1.00
Язык : English

Аудио #1
Идентификатор : 2
Формат : AC-3
Формат/Информация : Audio Coding 3
Расширение режима : CM (complete main)
Идентификатор кодека : A_AC3
Продолжительность : 2 ч. 6 м.
Вид битрейта : Постоянный
Битрейт : 448 Кбит/сек
Каналы : 6 каналов
Расположение каналов : Front: L C R, Side: L R, LFE
Частота : 48,0 КГц
Битовая глубина : 16 бит
Метод сжатия : С потерями
Размер потока : 405 Мбайт (11%)
Заголовок : Дублированный
Язык : Russian

Аудио #2
Идентификатор : 3
Формат : AC-3
Формат/Информация : Audio Coding 3
Расширение режима : CM (complete main)
Идентификатор кодека : A_AC3
Продолжительность : 2 ч. 6 м.
Вид битрейта : Постоянный
Битрейт : 448 Кбит/сек
Каналы : 6 каналов
Расположение каналов : Front: L C R, Side: L R, LFE
Частота : 48,0 КГц
Битовая глубина : 16 бит
Метод сжатия : С потерями
Размер потока : 405 Мбайт (11%)
Заголовок : Профессиональный многоголосый
Язык : Russian

Аудио #3
Идентификатор : 4
Формат : AC-3
Формат/Информация : Audio Coding 3
Расширение режима : CM (complete main)
Идентификатор кодека : A_AC3
Продолжительность : 2 ч. 6 м.
Вид битрейта : Постоянный
Битрейт : 192 Кбит/сек
Каналы : 2 канала
Расположение каналов : Front: L R
Частота : 48,0 КГц
Битовая глубина : 16 бит
Метод сжатия : С потерями
Размер потока : 174 Мбайт (5%)
Заголовок : Авторский одноголосый (А.Гаврилов)
Язык : Russian

Аудио #4
Идентификатор : 5
Формат : AC-3
Формат/Информация : Audio Coding 3
Расширение режима : CM (complete main)
Идентификатор кодека : A_AC3
Продолжительность : 2 ч. 6 м.
Вид битрейта : Постоянный
Битрейт : 448 Кбит/сек
Каналы : 6 каналов
Расположение каналов : Front: L C R, Side: L R, LFE
Частота : 48,0 КГц
Битовая глубина : 16 бит
Метод сжатия : С потерями
Размер потока : 405 Мбайт (11%)
Заголовок : Украинский дублированный

Аудио #5
Идентификатор : 6
Формат : AC-3
Формат/Информация : Audio Coding 3
Расширение режима : CM (complete main)
Идентификатор кодека : A_AC3
Продолжительность : 2 ч. 6 м.
Вид битрейта : Постоянный
Битрейт : 448 Кбит/сек
Каналы : 6 каналов
Расположение каналов : Front: L C R, Side: L R, LFE
Частота : 48,0 КГц
Битовая глубина : 16 бит
Метод сжатия : С потерями
Размер потока : 405 Мбайт (11%)
Заголовок : Английский
Язык : English

Текст #1
Идентификатор : 7
Формат : UTF-8
Идентификатор кодека : S_TEXT/UTF8
Идентификатор кодека/Информация : UTF-8 Plain Text
Язык : Russian

Текст #2
Идентификатор : 8
Формат : UTF-8
Идентификатор кодека : S_TEXT/UTF8
Идентификатор кодека/Информация : UTF-8 Plain Text
Заголовок : украинские

Текст #3
Идентификатор : 9
Формат : UTF-8
Идентификатор кодека : S_TEXT/UTF8
Идентификатор кодека/Информация : UTF-8 Plain Text
Язык : English

Меню
00:00:00.000 : en:Chapter 01
00:09:35.532 : en:Chapter 02
00:17:20.664 : en:Chapter 03
00:23:32.911 : en:Chapter 04
00:30:34.541 : en:Chapter 05
00:38:26.262 : en:Chapter 06
00:47:36.270 : en:Chapter 07
00:55:37.542 : en:Chapter 08
01:03:43.694 : en:Chapter 09
01:12:46.862 : en:Chapter 10
01:19:59.169 : en:Chapter 11
01:27:10.099 : en:Chapter 12
01:33:03.494 : en:Chapter 13
01:42:41.280 : en:Chapter 14
01:53:47.779 : en:Chapter 15
01:59:58.441 : en:Chapter 16

     


Привет, гость
Информация

Торрент трекер ExKinoRay.TV

Здесь вы можете скачать новые фильмы, сериалы, игры, музыку, софт и многое другое. Большая скорость скачивания на мультитрекерных раздачах. Всё абсолютно бесплатно.