Последний дюйм | 1958 | SATRip (AVC) - ExKinoRay Одобрено администрацией

Участники
  • Раздают4
  • Качают0
  • Просмотров129
  • Скачали0
  • Комментариев4
  • Список файлов1
Залил раздачу
Характеристики
Вес2.18 GB (2,344,585,955)
Залит2016-04-16 21:56:16 Обновлено2016-04-16 21:56:16
Сетевая Нет
  http://i60.fastpic.ru/big/2015/0501/8b/90b393018f9e25698c257bebc3adcd8b.gif
Чтобы скачать, необходимо авторизоваться или зарегистрироваться.
Статус: Одобрено администрацией
Хотите видеть детали Раздачи пройдите авторизацию или регистрацию!

Спасибо за понимание...
raw [info]: 692x570p 16:15 @ 25/1 fps (cfr)
x264 [info]: using SAR=16/15
x264 [info]: using cpu capabilities: MMX2 SSE2Fast SSSE3 SSE4.2 AVX
x264 [info]: profile High, level 4.1
x264 [info]: frame I:664   Avg QP:16.33  size: 82453
x264 [info]: frame P:32444 Avg QP:19.58  size: 36297
x264 [info]: frame B:93361 Avg QP:22.38  size: 10167
=====================================================================================================
Общее
Уникальный идентификатор                 : 199022793319235355180074918220439419260 (0x95BA654E5BDBB9A085F7F66309AEF97C)
Полное имя                               : D:\Последний дюйм_1958-SATRip-AVC.mkv
Формат                                   : Matroska
Версия формата                           : Version 2
Размер файла                             : 2,18 Гбайт
Продолжительность                        : 1 ч. 24 м.
Общий поток                              : 3708 Кбит/сек
Дата кодирования                         : UTC 2016-04-16 18:29:13
Программа кодирования                    : mkvmerge v5.8.0 ('No Sleep / Pillow') built on Sep  2 2012 15:37:04
Библиотека кодирования                   : libebml v1.2.3 + libmatroska v1.3.0

Видео
Идентификатор                            : 1
Формат                                   : AVC
Формат/Информация                        : Advanced Video Codec
Профиль формата                          : High@L4.1
Параметр CABAC формата                   : Да
Параметр ReFrames формата                : 15 кадров
Идентификатор кодека                     : V_MPEG4/ISO/AVC
Продолжительность                        : 1 ч. 24 м.
Битрейт                                  : 3450 Кбит/сек
Ширина                                   : 692 пикселя
Высота                                   : 570 пикселей
Соотношение сторон                       : 1,295
Режим частоты кадров                     : Постоянный
Частота кадров                           : 25,000 кадров/сек
Цветовое пространство                    : YUV
Субдискретизация насыщенности            : 4:2:0
Битовая глубина                          : 8 бит
Тип развёртки                            : Прогрессивная
Бит/(Пиксели*Кадры)                      : 0.350
Размер потока                            : 1,99 Гбайт (91%)
Библиотека кодирования                   : x264 core 148 r2638 7599210
Настройки программы                      : cabac=1 / ref=15 / deblock=1:-2:-2 / analyse=0x3:0x133 / me=umh / subme=10 / psy=1 / psy_rd=1.05:0.13 / mixed_ref=1 / me_range=32 / chroma_me=1 / trellis=2 / 8x8dct=1 / cqm=0 / deadzone=21,11 / fast_pskip=0 / chroma_qp_offset=-3 / threads=12 / lookahead_threads=2 / sliced_threads=0 / nr=0 / decimate=0 / interlaced=0 / bluray_compat=0 / constrained_intra=0 / bframes=8 / b_pyramid=2 / b_adapt=2 / b_bias=0 / direct=3 / weightb=1 / open_gop=0 / weightp=2 / keyint=250 / keyint_min=25 / scenecut=40 / intra_refresh=0 / rc=2pass / mbtree=0 / bitrate=3450 / ratetol=1.0 / qcomp=0.63 / qpmin=0 / qpmax=39 / qpstep=4 / cplxblur=20.0 / qblur=0.5 / ip_ratio=1.40 / pb_ratio=1.30 / aq=1:1.00
Язык                                     : English
Default                                  : Да
Forced                                   : Нет
Цветовой диапазон                        : Limited
Основные цвета                           : BT.601 PAL
Характеристики трансфера                 : BT.470 System B, BT.470 System G
Коэффициенты матрицы                     : BT.601

Аудио
Идентификатор                            : 2
Формат                                   : AC-3
Формат/Информация                        : Audio Coding 3
Расширение режима                        : CM (complete main)
Параметр Endianness формата              : Big
Идентификатор кодека                     : A_AC3
Продолжительность                        : 1 ч. 24 м.
Вид битрейта                             : Постоянный
Битрейт                                  : 256 Кбит/сек
Каналы                                   : 2 канала
Расположение каналов                     : Front: L R
Частота                                  : 48,0 КГц
Метод сжатия                             : С потерями
Задержка видео                           : 4 мс.
Размер потока                            : 154 Мбайт (7%)
Язык                                     : Russian
Default                                  : Да
Forced                                   : Нет

http://lostpix.com/thumbs/2016-04/16/id1n0udnfdgvh3gs4ubpu7t12.png  http://lostpix.com/thumbs/2016-04/16/t3hg67umep8f1e39p26xajg3z.png  http://lostpix.com/thumbs/2016-04/16/4w3n5mgbsc9docsmhydmqb2i8.png  http://lostpix.com/thumbs/2016-04/16/wax8i1xw1izdn4k9bdft71ulk.png  http://lostpix.com/thumbs/2016-04/16/ifv8ui3a428zxpvjkgydsgq1d.png  http://lostpix.com/thumbs/2016-04/16/iq4sim2n8y8fr9j7y7ljgwp6z.png  http://lostpix.com/thumbs/2016-04/16/j90h54lyxa5rkv9npkolc8x51.png  http://lostpix.com/thumbs/2016-04/16/sj9bsiarp5l1t92nqb0po14z3.png  

al1ksandr | 2016-04-17 00:13:47
 
Отличный фильм! Прекрасная экранизация рассказа Джеймса Олдриджа. Кино получилось сильное, а игра главных героев в сочетании с музыкой настолько выразительна, что в ключевых сценах пробивает слезу. Один из немногих фильмов, которые необходимо рекомендовать к просмотру вдвоем каждому отцу с сыном. Спасибо за релиз filbi 1976.
  |

mzma | 2016-04-16 23:56:54
 
Спасибо за хороший, и немного необычный для Советского
кинематографа фильм, в вашем качестве.
  |

mіstеr.hаts | 2016-04-16 22:18:15
 
filbi1976 Большое спасибо.
  |

verybigpapa | 2016-04-16 22:10:14
 
Уважаемый filbi1976, большое спасибо!
  |

Страницы:  1 
Привет, гость
Информация

Торрент трекер ExKinoRay.TV

Здесь вы можете скачать новые фильмы, сериалы, игры, музыку, софт и многое другое. Большая скорость скачивания на мультитрекерных раздачах. Всё абсолютно бесплатно.