Транзит | 1982 | SATRip (AVC) - ExKinoRay Одобрено администрацией

Участники
  • Раздают2
  • Качают0
  • Просмотров138
  • Скачали0
  • Комментариев6
  • Список файлов2
Залил раздачу
Характеристики
Вес1.92 GB (2,061,755,584)
Залит2016-04-18 12:01:15 Обновлено2016-04-18 12:01:15
Сетевая Нет
  http://i60.fastpic.ru/big/2015/0501/8b/90b393018f9e25698c257bebc3adcd8b.gif
Чтобы скачать, необходимо авторизоваться или зарегистрироваться.
Статус: Одобрено администрацией
Хотите видеть детали Раздачи пройдите авторизацию или регистрацию!

Спасибо за понимание...
raw [info]: 702x570p 16:15 @ 25/1 fps (cfr)
x264 [info]: using SAR=16/15
x264 [info]: using cpu capabilities: MMX2 SSE2Fast SSSE3 SSE4.2 AVX
x264 [info]: profile High, level 4.1
x264 [info]: frame I:47    Avg QP:14.74  size: 69578
x264 [info]: frame P:556   Avg QP:18.09  size: 22565
x264 [info]: frame B:1913  Avg QP:19.96  size:  4862
================================================================================================================
Общее
Уникальный идентификатор                 : 221552618690936363051489910861164438723 (0xA6AD7B755A981BF5BB1C2F8EA11BE4C3)
Полное имя                               : R:\МОИ РИПЫ\Транзит_1982-SATRip-AVC\Транзит-1.mkv
Формат                                   : Matroska
Версия формата                           : Version 2
Размер файла                             : 998 Мбайт
Продолжительность                        : 1 ч. 3 м.
Общий поток                              : 2194 Кбит/сек
Дата кодирования                         : UTC 2016-04-18 08:52:51
Программа кодирования                    : mkvmerge v5.8.0 ('No Sleep / Pillow') built on Sep  2 2012 15:37:04
Библиотека кодирования                   : libebml v1.2.3 + libmatroska v1.3.0

Видео
Идентификатор                            : 1
Формат                                   : AVC
Формат/Информация                        : Advanced Video Codec
Профиль формата                          : High@L4.1
Параметр CABAC формата                   : Да
Параметр ReFrames формата                : 15 кадров
Идентификатор кодека                     : V_MPEG4/ISO/AVC
Продолжительность                        : 1 ч. 3 м.
Битрейт                                  : 2000 Кбит/сек
Ширина                                   : 702 пикселя
Высота                                   : 570 пикселей
Соотношение сторон                       : 4:3
Режим частоты кадров                     : Постоянный
Частота кадров                           : 25,000 кадров/сек
Цветовое пространство                    : YUV
Субдискретизация насыщенности            : 4:2:0
Битовая глубина                          : 8 бит
Тип развёртки                            : Прогрессивная
Бит/(Пиксели*Кадры)                      : 0.200
Размер потока                            : 891 Мбайт (89%)
Библиотека кодирования                   : x264 core 148 r2638 7599210
Настройки программы                      : cabac=1 / ref=15 / deblock=1:-2:-2 / analyse=0x3:0x133 / me=umh / subme=10 / psy=1 / psy_rd=1.05:0.13 / mixed_ref=1 / me_range=32 / chroma_me=1 / trellis=2 / 8x8dct=1 / cqm=0 / deadzone=21,11 / fast_pskip=0 / chroma_qp_offset=-3 / threads=12 / lookahead_threads=3 / sliced_threads=0 / nr=0 / decimate=0 / interlaced=0 / bluray_compat=0 / constrained_intra=0 / bframes=10 / b_pyramid=2 / b_adapt=2 / b_bias=0 / direct=3 / weightb=1 / open_gop=0 / weightp=2 / keyint=250 / keyint_min=25 / scenecut=40 / intra_refresh=0 / rc=2pass / mbtree=0 / bitrate=2000 / ratetol=1.0 / qcomp=0.63 / qpmin=0 / qpmax=39 / qpstep=4 / cplxblur=20.0 / qblur=0.5 / ip_ratio=1.40 / pb_ratio=1.30 / aq=1:1.00
Default                                  : Да
Forced                                   : Нет
Цветовой диапазон                        : Limited
Основные цвета                           : BT.601 PAL
Характеристики трансфера                 : BT.470 System B, BT.470 System G
Коэффициенты матрицы                     : BT.601

Аудио
Идентификатор                            : 2
Формат                                   : AC-3
Формат/Информация                        : Audio Coding 3
Расширение режима                        : CM (complete main)
Параметр Endianness формата              : Big
Идентификатор кодека                     : A_AC3
Продолжительность                        : 1 ч. 3 м.
Вид битрейта                             : Постоянный
Битрейт                                  : 192 Кбит/сек
Каналы                                   : 2 канала
Расположение каналов                     : Front: L R
Частота                                  : 48,0 КГц
Метод сжатия                             : С потерями
Размер потока                            : 87,4 Мбайт (9%)
Язык                                     : Russian
Default                                  : Да
Forced                                   : Нет


http://lostpix.com/thumbs/2016-04/18/lazml1vpdeqgd1jh7d9wki8ha.png  http://lostpix.com/thumbs/2016-04/18/wjwi7ijstprf42ilode0y0zr1.png  http://lostpix.com/thumbs/2016-04/18/0thmo80pqasyxw1vk43ovqkpw.png  http://lostpix.com/thumbs/2016-04/18/qybzh4ice530ghmuzydbzxb4t.png  http://lostpix.com/thumbs/2016-04/18/r91hcjd0vxepsn20aeo3jf16n.png  http://lostpix.com/thumbs/2016-04/18/7tgcju8fq5q5wsegxb8z7qaut.png  http://lostpix.com/thumbs/2016-04/18/9gk1ra6pzoxzb09prsp1aw4yc.png  http://lostpix.com/thumbs/2016-04/18/4h65wlsxa1qj4uevuk475tv8u.png  http://lostpix.com/thumbs/2016-04/18/xcktuzbsqiu1mulay2tcstdw8.png  http://lostpix.com/thumbs/2016-04/18/hnskzo46rcpoiu6cb1yt56h73.png  http://lostpix.com/thumbs/2016-04/18/xpe1wvkes49hj6l5owica7m85.png  

bagrad62 | 2016-04-19 00:11:35
 
Наверное все ослепли! :-D
  |

filbi1976 | 2016-04-18 22:03:39
 
Всем пожалуйста!
Делайте заказы на форуме, осталось два дня, в личке я больше этим заниматься не могу как физически, так и морально.
Писем у меня хватает, месяц назад удалил больше 5000.
  |

Digor | 2016-04-18 21:06:59
 
Спасибо большое!
Хороший фильм, прекрасная игра актёров.
  |

mіstеr.hаts | 2016-04-18 21:05:36
 
filbi1976 Большое спасибо.
  |

verybigpapa | 2016-04-18 14:30:10
 
Большое спасибо, уважаемый filbi1976, за отличный фильм!
  |

al1ksandr | 2016-04-18 12:33:39
 
Отличный фильм! Замечательная экранизация прекрасной пьесы Леонида Зорина. Очень тонкая, глубокая и пронзительная история. Прекрасная игра актеров. Фильм исследующий глубины человеческой души. Спасибо за релиз filbi 1976.
  |

Страницы:  1 
Привет, гость
Информация

Торрент трекер ExKinoRay.TV

Здесь вы можете скачать новые фильмы, сериалы, игры, музыку, софт и многое другое. Большая скорость скачивания на мультитрекерных раздачах. Всё абсолютно бесплатно.