Безотцовщина | 1976 | SATRip (AVC) - ExKinoRay Одобрено администрацией

Участники
  • Раздают2
  • Качают0
  • Просмотров134
  • Скачали0
  • Комментариев4
  • Список файлов1
Залил раздачу
Характеристики
Вес1.34 GB (1,437,466,665)
Залит2016-04-18 12:53:56 Обновлено2016-04-18 12:53:56
Сетевая Нет
  http://i60.fastpic.ru/big/2015/0501/8b/90b393018f9e25698c257bebc3adcd8b.gif
Чтобы скачать, необходимо авторизоваться или зарегистрироваться.
Статус: Одобрено администрацией
Хотите видеть детали Раздачи пройдите авторизацию или регистрацию!

Спасибо за понимание...
Общее
Уникальный идентификатор                 : 197297492719017591859693154821544355695 (0x946E1D6B443D7D44B4CCD837296C276F)
Полное имя                               : D:\Безотцовщина_1976-SATRip-AVC.mkv
Формат                                   : Matroska
Версия формата                           : Version 2
Размер файла                             : 1,34 Гбайт
Продолжительность                        : 1 ч. 29 м.
Общий поток                              : 2144 Кбит/сек
Дата кодирования                         : UTC 2016-04-18 09:48:35
Программа кодирования                    : mkvmerge v5.8.0 ('No Sleep / Pillow') built on Sep  2 2012 15:37:04
Библиотека кодирования                   : libebml v1.2.3 + libmatroska v1.3.0

Видео
Идентификатор                            : 1
Формат                                   : AVC
Формат/Информация                        : Advanced Video Codec
Профиль формата                          : High@L4.1
Параметр CABAC формата                   : Да
Параметр ReFrames формата                : 14 кадров
Идентификатор кодека                     : V_MPEG4/ISO/AVC
Продолжительность                        : 1 ч. 29 м.
Битрейт                                  : 1950 Кбит/сек
Ширина                                   : 704 пикселя
Высота                                   : 330 пикселей
Соотношение сторон                       : 2,25:1
Соотношение сторон в оригинале           : 2,25:1
Режим частоты кадров                     : Постоянный
Частота кадров                           : 25,000 кадров/сек
Цветовое пространство                    : YUV
Субдискретизация насыщенности            : 4:2:0
Битовая глубина                          : 8 бит
Тип развёртки                            : Прогрессивная
Бит/(Пиксели*Кадры)                      : 0.336
Размер потока                            : 1,19 Гбайт (89%)
Библиотека кодирования                   : x264 core 148 r2638 7599210
Настройки программы                      : cabac=1 / ref=14 / deblock=1:-2:-2 / analyse=0x3:0x133 / me=umh / subme=10 / psy=1 / psy_rd=1.05:0.10 / mixed_ref=1 / me_range=32 / chroma_me=1 / trellis=2 / 8x8dct=1 / cqm=0 / deadzone=21,11 / fast_pskip=0 / chroma_qp_offset=-3 / threads=10 / lookahead_threads=1 / sliced_threads=0 / nr=0 / decimate=0 / interlaced=0 / bluray_compat=0 / constrained_intra=0 / bframes=8 / b_pyramid=2 / b_adapt=2 / b_bias=0 / direct=3 / weightb=1 / open_gop=0 / weightp=2 / keyint=250 / keyint_min=25 / scenecut=40 / intra_refresh=0 / rc=2pass / mbtree=0 / bitrate=1950 / ratetol=1.0 / qcomp=0.63 / qpmin=0 / qpmax=39 / qpstep=4 / cplxblur=20.0 / qblur=0.5 / ip_ratio=1.40 / pb_ratio=1.30 / aq=1:1.00
Default                                  : Да
Forced                                   : Нет
Цветовой диапазон                        : Limited
Основные цвета                           : BT.601 PAL
Характеристики трансфера                 : BT.470 System B, BT.470 System G
Коэффициенты матрицы                     : BT.601

Аудио
Идентификатор                            : 2
Формат                                   : AC-3
Формат/Информация                        : Audio Coding 3
Расширение режима                        : CM (complete main)
Параметр Endianness формата              : Big
Идентификатор кодека                     : A_AC3
Продолжительность                        : 1 ч. 29 м.
Вид битрейта                             : Постоянный
Битрейт                                  : 192 Кбит/сек
Каналы                                   : 2 канала
Расположение каналов                     : Front: L R
Частота                                  : 48,0 КГц
Метод сжатия                             : С потерями
Задержка видео                           : 12 мс.
Размер потока                            : 123 Мбайт (9%)
Язык                                     : Russian
Default                                  : Да
Forced                                   : Нет

http://lostpix.com/thumbs/2016-04/18/7eigu5kqpc90ny7dlz3n0s986.png  http://lostpix.com/thumbs/2016-04/18/lvepmkg9vzwpc7jxa5ilxeg1e.png  http://lostpix.com/thumbs/2016-04/18/f5qazrwuzaobqxue2qyunj5kc.png  http://lostpix.com/thumbs/2016-04/18/67cv3pi513op476brwnb8n1y7.png  http://lostpix.com/thumbs/2016-04/18/83j8m3fzlpozjkhl1wtlrwmil.png  http://lostpix.com/thumbs/2016-04/18/hkhxin90dp095ymsnsm845nu5.png  http://lostpix.com/thumbs/2016-04/18/36bkjz1opm01rstpz3lbwzx63.png  http://lostpix.com/thumbs/2016-04/18/b9jbuslg1hp019oheia6rmkur.png  http://lostpix.com/thumbs/2016-04/18/rftfqu5g7hrx3828o9aeihalg.png  http://lostpix.com/thumbs/2016-04/18/fv5xewti6131aigdhfq6btg2m.png  
Похожие раздачиРазмер
Безответная любовь | 1979 | DVDRip1.21 GB

Bars_St | 2016-04-19 07:55:09
 
Спасибо!!!
  |

filbi1976 | 2016-04-18 23:07:25
 
Всем пожалуйста!
  |

mіstеr.hаts | 2016-04-18 20:53:12
 
filbi1976 Большое спасибо.
  |

verybigpapa | 2016-04-18 14:27:35
 
Уважаемый filbi1976, большое спасибо.
  |

Страницы:  1 
Привет, гость
Информация

Торрент трекер ExKinoRay.TV

Здесь вы можете скачать новые фильмы, сериалы, игры, музыку, софт и многое другое. Большая скорость скачивания на мультитрекерных раздачах. Всё абсолютно бесплатно.