Крампус | Krampus | 2015 | BDRip (720p) | Dub (iTunes) - ExKinoRay Одобрено администрацией

Участники
  • Раздают0
  • Качают0
  • Просмотров115
  • Скачали0
  • Комментариев0
  • Список файлов1
Залил раздачу
Поблагодарить
Характеристики
Вес5.67 GB (6,089,531,064)
Залит2016-04-19 15:41:26 Обновлено2016-04-19 15:41:26
Сетевая Нет
   http://s015.radikal.ru/i332/1604/ed/2f3358c0cd05.gif  http://s019.radikal.ru/i635/1604/71/1631672318a1.gif
Чтобы скачать, необходимо авторизоваться или зарегистрироваться.
Статус: Одобрено администрацией
Хотите видеть детали Раздачи пройдите авторизацию или регистрацию!

Спасибо за понимание...
Просьба отключить блокировщики рекламы на странице скриншотов по адресу: http://3.lostpic.net/, этим Вы поможете существованию проекта. Заранее спасибо!
Релиз без рекламы.

Инфо-файл:
General
Unique ID                   : 208881248282931852761312405276940271917 (0x9D2510A9AAACA153B56DE2274DBF812D)
Complete name               : F:\Video\Krampus.2015.BDRip.720p.ExKinoRay.mkv
Format                      : Matroska
Format version              : Version 4 / Version 2
File size                   : 5.67 GiB
Duration                    : 1h 37mn
Overall bit rate            : 8 312 Kbps
Movie name                  : Release-group "ExKinoRay" / Author-release "селезень" | Rip from "селезень"
Encoded date                : UTC 2016-04-19 11:45:12
Writing application         : mkvmerge v8.3.0 ('Over the Horizon') 64bit
Writing library             : libebml v1.3.1 + libmatroska v1.4.2

Video
ID                          : 1
Format                      : AVC
Format/Info                 : Advanced Video Codec
Format profile              : High@L4.1
Format settings, CABAC      : Yes
Format settings, ReFrames   : 4 frames
Codec ID                    : V_MPEG4/ISO/AVC
Duration                    : 1h 37mn
Bit rate                    : 6 411 Kbps
Width                       : 1 280 pixels
Height                      : 536 pixels
Display aspect ratio        : 2.40:1
Frame rate mode             : Constant
Frame rate                  : 23.976 (24000/1001) fps
Color space                 : YUV
Chroma subsampling          : 4:2:0
Bit depth                   : 8 bits
Scan type                   : Progressive
Bits/(Pixel*Frame)          : 0.390
Stream size                 : 4.36 GiB (77%)
Writing library             : x264 core 146 r2538 121396c
Encoding settings           : cabac=1 / ref=4 / deblock=1:-2:-2 / analyse=0x3:0x113 / me=umh / subme=10 / psy=1 / psy_rd=1.00:0.00 / mixed_ref=1 / me_range=32 / chroma_me=1 / trellis=2 / 8x8dct=1 / cqm=0 / deadzone=21,11 / fast_pskip=0 / chroma_qp_offset=-2 / threads=6 / lookahead_threads=1 / sliced_threads=0 / nr=0 / decimate=0 / interlaced=0 / bluray_compat=0 / constrained_intra=0 / bframes=7 / b_pyramid=2 / b_adapt=2 / b_bias=0 / direct=3 / weightb=1 / open_gop=0 / weightp=2 / keyint=240 / keyint_min=23 / scenecut=40 / intra_refresh=0 / rc_lookahead=60 / rc=2pass / mbtree=1 / bitrate=6411 / ratetol=1.0 / qcomp=0.60 / qpmin=0 / qpmax=69 / qpstep=4 / cplxblur=20.0 / qblur=0.5 / vbv_maxrate=14000 / vbv_bufsize=14000 / nal_hrd=none / filler=0 / ip_ratio=1.40 / aq=1:0.80
Language                    : English
Default                     : Yes
Forced                      : No

Audio #1
ID                          : 2
Format                      : AC-3
Format/Info                 : Audio Coding 3
Mode extension              : CM (complete main)
Format settings, Endianness : Big
Codec ID                    : A_AC3
Duration                    : 1h 37mn
Bit rate mode               : Constant
Bit rate                    : 384 Kbps
Channel(s)                  : 6 channels
Channel positions           : Front: L C R, Side: L R, LFE
Sampling rate               : 48.0 KHz
Frame rate                  : 31.250 fps (1536 spf)
Compression mode            : Lossy
Delay relative to video     : 24ms
Stream size                 : 268 MiB (5%)
Title                       : DUB [iTunes]
Language                    : Russian
Default                     : Yes
Forced                      : No

Audio #2
ID                          : 3
Format                      : DTS
Format/Info                 : Digital Theater Systems
Mode                        : 16
Format settings, Endianness : Big
Codec ID                    : A_DTS
Duration                    : 1h 37mn
Bit rate mode               : Constant
Bit rate                    : 1 536 Kbps
Channel(s)                  : 6 channels
Channel positions           : Front: L C R, Side: L R, LFE
Sampling rate               : 48.0 KHz
Frame rate                  : 93.750 fps (512 spf)
Bit depth                   : 16 bits
Compression mode            : Lossy
Stream size                 : 1.05 GiB (18%)
Language                    : English
Default                     : No
Forced                      : No

Text #1
ID                          : 4
Format                      : UTF-8
Codec ID                    : S_TEXT/UTF8
Codec ID/Info               : UTF-8 Plain Text
Duration                    : 1h 30mn
Bit rate                    : 77 bps
Count of elements           : 1124
Stream size                 : 51.5 KiB (0%)
Language                    : Russian
Default                     : No
Forced                      : No

Text #2
ID                          : 5
Format                      : UTF-8
Codec ID                    : S_TEXT/UTF8
Codec ID/Info               : UTF-8 Plain Text
Duration                    : 1h 28mn
Bit rate                    : 48 bps
Count of elements           : 958
Stream size                 : 31.3 KiB (0%)
Language                    : English
Default                     : No
Forced                      : No

Menu
00:00:00.000                : en:Chapter 01
00:03:20.700                : en:Chapter 02
00:07:16.686                : en:Chapter 03
00:14:18.065                : en:Chapter 04
00:20:02.576                : en:Chapter 05
00:27:26.603                : en:Chapter 06
00:34:15.845                : en:Chapter 07
00:37:44.303                : en:Chapter 08
00:42:01.393                : en:Chapter 09
00:45:11.959                : en:Chapter 10
00:50:29.860                : en:Chapter 11
00:56:07.030                : en:Chapter 12
01:00:24.245                : en:Chapter 13
01:05:34.931                : en:Chapter 14
01:09:58.944                : en:Chapter 15
01:14:38.515                : en:Chapter 16
01:18:30.080                : en:Chapter 17
01:23:17.659                : en:Chapter 18
01:27:44.801                : en:Chapter 19
01:32:27.750                : en:Chapter 20
     


Привет, гость
- Запомнить
Регистрация
Информация

Торрент трекер ExKinoRay.TV

Здесь вы можете скачать новые фильмы, сериалы, игры, музыку, софт и многое другое. Большая скорость скачивания на мультитрекерных раздачах. Всё абсолютно бесплатно.