Кукла | The Boy | 2016 | BDRip (AVC) - ExKinoRay Одобрено администрацией

Участники
  • Раздают1
  • Качают0
  • Просмотров149
  • Скачали1
  • Комментариев0
  • Список файлов1
Залил раздачу
Поблагодарить
Характеристики
Вес1.96 GB (2,101,432,723)
Залит2016-04-28 13:31:07 Обновлено2016-04-28 13:31:07
Сетевая Нет
   http://exkinoray.org/pic/ExKinoRay.org.gif  http://i48.fastpic.ru/big/2012/1111/19/b7a083d432c09a04b1a6257ad25c5819.jpg
Чтобы скачать, необходимо авторизоваться или зарегистрироваться.
Статус: Одобрено администрацией
Хотите видеть детали Раздачи пройдите авторизацию или регистрацию!

Спасибо за понимание...
Просьба отключить блокировщики рекламы на странице скриншотов по адресу: http://3.lostpic.net/, этим Вы поможете существованию проекта. Заранее спасибо!
Общее
Уникальный идентификатор                 : 185473840797015738327435101399629093323 (0x8B88F65F229E368F9B4B2E883F26D9CB)
Полное имя                               : G:\Кукла\Kukla.2016.x264.BDRip.(AVC).ExKinoRay.mkv
Формат                                   : Matroska
Версия формата                           : Version 2
Размер файла                             : 1,96 Гбайт
Продолжительность                        : 1 ч. 37 м.
Общий поток                              : 2865 Кбит/сек
Дата кодирования                         : UTC 2016-04-28 09:16:32
Программа кодирования                    : mkvmerge v7.8.0 ('River Man') 32bit built on Apr  3 2015 12:11:22
Библиотека кодирования                   : libebml v1.3.1 + libmatroska v1.4.2

Видео
Идентификатор                            : 1
Формат                                   : AVC
Формат/Информация                        : Advanced Video Codec
Профиль формата                          : High@L4.1
Параметр CABAC формата                   : Да
Параметр ReFrames формата                : 14 кадров
Идентификатор кодека                     : V_MPEG4/ISO/AVC
Продолжительность                        : 1 ч. 37 м.
Битрейт                                  : 2100 Кбит/сек
Ширина                                   : 1032 пикселя
Высота                                   : 430 пикселей
Соотношение сторон                       : 2,40:1
Режим частоты кадров                     : Постоянный
Частота кадров                           : 23,976 кадра/сек
Цветовое пространство                    : YUV
Субдискретизация насыщенности            : 4:2:0
Битовая глубина                          : 8 бит
Тип развёртки                            : Прогрессивная
Бит/(Пиксели*Кадры)                      : 0.197
Размер потока                            : 1,39 Гбайт (71%)
Библиотека кодирования                   : x264 core 148 r2638 7599210
Настройки программы                      : cabac=1 / ref=14 / deblock=1:-3:-3 / analyse=0x3:0x113 / me=umh / subme=11 / psy=1 / psy_rd=1.05:0.15 / mixed_ref=1 / me_range=32 / chroma_me=1 / trellis=2 / 8x8dct=1 / cqm=0 / deadzone=21,11 / fast_pskip=0 / chroma_qp_offset=-3 / threads=6 / lookahead_threads=1 / sliced_threads=0 / nr=0 / decimate=0 / interlaced=0 / bluray_compat=0 / constrained_intra=0 / bframes=16 / b_pyramid=2 / b_adapt=2 / b_bias=0 / direct=3 / weightb=1 / open_gop=0 / weightp=2 / keyint=240 / keyint_min=23 / scenecut=40 / intra_refresh=0 / rc_lookahead=40 / rc=2pass / mbtree=0 / bitrate=2100 / ratetol=1.0 / qcomp=0.63 / qpmin=0 / qpmax=39 / qpstep=4 / cplxblur=20.0 / qblur=0.5 / vbv_maxrate=50000 / vbv_bufsize=62500 / nal_hrd=none / filler=0 / ip_ratio=1.40 / pb_ratio=1.30 / aq=3:1.00
Язык                                     : English
Default                                  : Да
Forced                                   : Нет
Основные цвета                           : BT.709
Характеристики трансфера                 : BT.709
Коэффициенты матрицы                     : BT.709
colour_range                             : Limited

Аудио #1
Идентификатор                            : 2
Формат                                   : AC-3
Формат/Информация                        : Audio Coding 3
Расширение режима                        : CM (complete main)
Параметр Endianness формата              : Big
Идентификатор кодека                     : A_AC3
Продолжительность                        : 1 ч. 37 м.
Вид битрейта                             : Постоянный
Битрейт                                  : 384 Кбит/сек
Каналы                                   : 6 каналов
Расположение каналов                     : Front: L C R, Side: L R, LFE
Частота                                  : 48,0 КГц
Битовая глубина                          : 16 бит
Метод сжатия                             : С потерями
Размер потока                            : 269 Мбайт (13%)
Язык                                     : Russian
Default                                  : Да
Forced                                   : Да

Аудио #2
Идентификатор                            : 3
Формат                                   : AC-3
Формат/Информация                        : Audio Coding 3
Расширение режима                        : CM (complete main)
Параметр Endianness формата              : Big
Идентификатор кодека                     : A_AC3
Продолжительность                        : 1 ч. 37 м.
Вид битрейта                             : Постоянный
Битрейт                                  : 384 Кбит/сек
Каналы                                   : 6 каналов
Расположение каналов                     : Front: L C R, Side: L R, LFE
Частота                                  : 48,0 КГц
Битовая глубина                          : 16 бит
Метод сжатия                             : С потерями
Размер потока                            : 269 Мбайт (13%)
Язык                                     : English
Default                                  : Нет
Forced                                   : Да

Текст
Идентификатор                            : 4
Формат                                   : UTF-8
Идентификатор кодека                     : S_TEXT/UTF8
Идентификатор кодека/Информация          : UTF-8 Plain Text
Язык                                     : English
Default                                  : Да
Forced                                   : Да

Меню
00:00:00.000                             : en:1
00:05:50.000                             : en:2
00:09:54.000                             : en:3
00:14:06.000                             : en:4
00:18:15.000                             : en:5
00:23:56.000                             : en:6
00:27:58.000                             : en:7
00:32:20.000                             : en:8
00:38:15.000                             : en:9
00:41:41.000                             : en:10
00:45:07.000                             : en:11
00:51:32.000                             : en:12
00:54:22.000                             : en:13
01:01:28.000                             : en:14
01:05:37.000                             : en:15
01:09:27.000                             : en:16
01:15:56.000                             : en:17
01:19:54.000                             : en:18
01:27:06.000                             : en:19
01:33:21.000                             : en:20
http://lostpix.com/thumbs/2016-04/28/4vzkr3hjsbkorm0fbot4l7kh7.png http://lostpix.com/thumbs/2016-04/28/2bxqlrba2t4u1d3nsk1sp270v.png http://lostpix.com/thumbs/2016-04/28/h7p3xqd28f3zyvjpynhc6r3n8.png http://lostpix.com/thumbs/2016-04/28/uj7fr4b7vzmc4d097zxs0cgmj.png
     


Привет, гость
- Запомнить
Регистрация
Информация

Торрент трекер ExKinoRay.TV

Здесь вы можете скачать новые фильмы, сериалы, игры, музыку, софт и многое другое. Большая скорость скачивания на мультитрекерных раздачах. Всё абсолютно бесплатно.