Посвященный | The Giver | 2014 | BDRip (1080p) - ExKinoRay Одобрено администрацией

Участники
  • Раздают0
  • Качают0
  • Просмотров305
  • Скачали0
  • Комментариев0
  • Список файлов1
Залил раздачу
Неизвестен
Поблагодарить
Характеристики
Вес5.91 GB (6,347,834,672)
Залит2015-02-07 17:31:42 Обновлено2015-02-07 17:31:42
Сетевая Нет
   http://s008.radikal.ru/i306/1502/81/bcbaeb9386af.gif   http://s011.radikal.ru/i316/1502/6c/bb6f67ecf97c.gif
Чтобы скачать, необходимо авторизоваться или зарегистрироваться.
Статус: Одобрено администрацией
Хотите видеть детали Раздачи пройдите авторизацию или регистрацию!

Спасибо за понимание...
Просьба отключить блокировщики рекламы на странице скриншотов по адресу: http://3.lostpic.net/, этим Вы поможете существованию проекта. Заранее спасибо!
Rip by Enigma-Vladislav71

x264 [info]: frame I:1154 Avg QP:14.04 size:147551
x264 [info]: frame P:37237 Avg QP:17.11 size: 61173
x264 [info]: frame B:101582 Avg QP:17.89 size: 23565
______________________________________________________

General
Unique ID : 211444918817560732999879152507035717752 (0x9F12CF61013F1864BB8DE920F5FE1078)
Complete name : C:Giver.2014.D.BDRip.1080p.ExKinoRay.mkv
Format : Matroska
Format version : Version 2
File size : 5.91 GiB
Duration : 1h 33mn
Overall bit rate : 9 070 Kbps
Movie name : Giver 2014 from ExKinoRay
Encoded date : UTC 2014-10-16 09:18:30
Writing application : mkvmerge v4.9.1 ('Ich will') built on Jul 11 2011 23:53:15
Writing library : libebml v1.2.1 + libmatroska v1.1.1

Video
ID : 1
Format : AVC
Format/Info : Advanced Video Codec
Format profile : High@L4.1
Format settings, CABAC : Yes
Format settings, ReFrames : 4 frames
Codec ID : V_MPEG4/ISO/AVC
Duration : 1h 33mn
Bit rate : 6 922 Kbps
Width : 1 920 pixels
Height : 1 080 pixels
Display aspect ratio : 16:9
Frame rate mode : Constant
Frame rate : 25.000 fps
Color space : YUV
Chroma subsampling : 4:2:0
Bit depth : 8 bits
Scan type : Progressive
Bits/(Pixel*Frame) : 0.134
Stream size : 4.39 GiB (74%)
Title : Enigma-Vladislav71
Writing library : x264 core 133 r2334 a3ac64b
Encoding settings : cabac=1 / ref=4 / deblock=1:-1:-2 / analyse=0x3:0x113 / me=umh / subme=10 / psy=1 / psy_rd=1.00:0.20 / mixed_ref=1 / me_range=32 / chroma_me=1 / trellis=2 / 8x8dct=1 / cqm=0 / deadzone=21,11 / fast_pskip=0 / chroma_qp_offset=-3 / threads=12 / lookahead_threads=2 / sliced_threads=0 / nr=0 / decimate=0 / interlaced=0 / bluray_compat=0 / constrained_intra=0 / bframes=9 / b_pyramid=2 / b_adapt=2 / b_bias=0 / direct=3 / weightb=1 / open_gop=0 / weightp=2 / keyint=250 / keyint_min=25 / scenecut=40 / intra_refresh=0 / rc=2pass / mbtree=0 / bitrate=6922 / ratetol=1.0 / qcomp=0.60 / qpmin=0 / qpmax=69 / qpstep=4 / cplxblur=20.0 / qblur=0.5 / ip_ratio=1.40 / pb_ratio=1.30 / aq=1:1.00
Language : English
Default : Yes
Forced : No

Audio #1
ID : 2
Format : AC-3
Format/Info : Audio Coding 3
Mode extension : CM (complete main)
Format settings, Endianness : Big
Codec ID : A_AC3
Duration : 1h 33mn
Bit rate mode : Constant
Bit rate : 640 Kbps
Channel(s) : 6 channels
Channel positions : Front: L C R, Side: L R, LFE
Sampling rate : 48.0 KHz
Bit depth : 16 bits
Compression mode : Lossy
Stream size : 427 MiB (7%)
Title : DUB
Language : Russian
Default : Yes
Forced : No

Audio #2
ID : 3
Format : DTS
Format/Info : Digital Theater Systems
Mode : 16
Format settings, Endianness : Big
Codec ID : A_DTS
Duration : 1h 33mn
Bit rate mode : Constant
Bit rate : 1 509 Kbps
Channel(s) : 6 channels
Channel positions : Front: L C R, Side: L R, LFE
Sampling rate : 48.0 KHz
Bit depth : 16 bits
Compression mode : Lossy
Stream size : 1 007 MiB (17%)
Title : DUB
Language : Russian
Default : No
Forced : No

Menu
00:00:00.000 : :Chapter 01
00:08:17.000 : :Chapter 02
00:14:57.000 : :Chapter 03
00:23:28.400 : :Chapter 04
00:30:41.120 : :Chapter 05
00:39:11.680 : :Chapter 06
00:46:38.080 : :Chapter 07
00:54:25.040 : :Chapter 08
01:02:10.479 : :Chapter 09
01:10:47.640 : :Chapter 10
01:17:26.479 : :Chapter 11
01:23:31.439 : :Chapter 12
01:33:18.880 : :Chapter 13
     


Привет, гость
- Запомнить
Регистрация
Информация

Торрент трекер ExKinoRay.TV

Здесь вы можете скачать новые фильмы, сериалы, игры, музыку, софт и многое другое. Большая скорость скачивания на мультитрекерных раздачах. Всё абсолютно бесплатно.