Три девятки | Triple 9 | 2016 | Blu-Ray Remux (1080p) | Dub (iTunes) - ExKinoRay Одобрено администрацией

Участники
  • Раздают0
  • Качают0
  • Просмотров198
  • Скачали0
  • Комментариев0
  • Список файлов1
Залил раздачу
Поблагодарить
Характеристики
Вес32.08 GB (34,445,650,496)
Залит2016-05-19 21:10:03 Обновлено2016-05-19 21:10:03
Сетевая Нет
   http://s015.radikal.ru/i332/1604/ed/2f3358c0cd05.gif  http://s019.radikal.ru/i635/1604/71/1631672318a1.gif
Чтобы скачать, необходимо авторизоваться или зарегистрироваться.
Статус: Одобрено администрацией
Хотите видеть детали Раздачи пройдите авторизацию или регистрацию!

Спасибо за понимание...
Просьба отключить блокировщики рекламы на странице скриншотов по адресу: http://3.lostpic.net/, этим Вы поможете существованию проекта. Заранее спасибо!
General
Unique ID                   : 172901006377172997521394664600297632710 (0x821385C67818E78AA5501E61EDCD73C6)
Complete name               : F:\Video\Triple.9.2016.BDREMUX.1080p.ExKinoRay.mkv
Format                      : Matroska
Format version              : Version 4 / Version 2
File size                   : 32.1 GiB
Duration                    : 1h 55mn
Overall bit rate mode       : Variable
Overall bit rate            : 39.7 Mbps
Movie name                  : Triple.9.2016.BDREMUX.1080p.ExKinoRay
Encoded date                : UTC 2016-05-19 17:36:30
Writing application         : mkvmerge v8.3.0 ('Over the Horizon') 64bit
Writing library             : libebml v1.3.1 + libmatroska v1.4.2

Video
ID                          : 1
Format                      : AVC
Format/Info                 : Advanced Video Codec
Format profile              : High@L4.1
Format settings, CABAC      : Yes
Format settings, ReFrames   : 4 frames
Codec ID                    : V_MPEG4/ISO/AVC
Duration                    : 1h 55mn
Bit rate mode               : Variable
Bit rate                    : 35.5 Mbps
Maximum bit rate            : 38.0 Mbps
Width                       : 1 920 pixels
Height                      : 1 080 pixels
Display aspect ratio        : 16:9
Frame rate mode             : Constant
Frame rate                  : 23.976 (24000/1001) fps
Color space                 : YUV
Chroma subsampling          : 4:2:0
Bit depth                   : 8 bits
Scan type                   : Progressive
Bits/(Pixel*Frame)          : 0.714
Stream size                 : 28.7 GiB (90%)
Title                       : Triple.9.2016.BDREMUX.1080p.ExKinoRay.***селезень***
Language                    : English
Default                     : Yes
Forced                      : No

Audio #1
ID                          : 2
Format                      : AC-3
Format/Info                 : Audio Coding 3
Mode extension              : CM (complete main)
Format settings, Endianness : Big
Codec ID                    : A_AC3
Duration                    : 1h 55mn
Bit rate mode               : Constant
Bit rate                    : 384 Kbps
Channel(s)                  : 6 channels
Channel positions           : Front: L C R, Side: L R, LFE
Sampling rate               : 48.0 KHz
Frame rate                  : 31.250 fps (1536 spf)
Compression mode            : Lossy
Stream size                 : 318 MiB (1%)
Title                       : DUB [iTunes]
Language                    : Russian
Default                     : Yes
Forced                      : No

Audio #2
ID                          : 3
Format                      : DTS
Format/Info                 : Digital Theater Systems
Format profile              : MA / Core
Mode                        : 16
Format settings, Endianness : Big
Codec ID                    : A_DTS
Duration                    : 1h 55mn
Bit rate mode               : Variable / Constant
Bit rate                    : 3 840 Kbps / 1 509 Kbps
Channel(s)                  : 6 channels
Channel positions           : Front: L C R, Side: L R, LFE
Sampling rate               : 48.0 KHz
Frame rate                  : 93.750 fps (512 spf)
Bit depth                   : 24 bits
Compression mode            : Lossless / Lossy
Stream size                 : 3.05 GiB (10%)
Title                       : Original
Language                    : English
Default                     : No
Forced                      : No

Text #1
ID                          : 4
Format                      : UTF-8
Codec ID                    : S_TEXT/UTF8
Codec ID/Info               : UTF-8 Plain Text
Duration                    : 1h 48mn
Bit rate                    : 80 bps
Count of elements           : 1203
Stream size                 : 64.5 KiB (0%)
Language                    : Russian
Default                     : No
Forced                      : No

Text #2
ID                          : 5
Format                      : UTF-8
Codec ID                    : S_TEXT/UTF8
Codec ID/Info               : UTF-8 Plain Text
Duration                    : 1h 48mn
Bit rate                    : 30 bps
Count of elements           : 837
Stream size                 : 24.7 KiB (0%)
Language                    : English
Default                     : No
Forced                      : No

Menu
00:00:00.000                : en:00:00:00
00:05:34.459                : en:00:05:34
00:12:18.029                : en:00:12:18
00:15:57.039                : en:00:15:57
00:20:25.724                : en:00:20:25
00:28:39.468                : en:00:28:39
00:34:28.942                : en:00:34:28
00:39:29.576                : en:00:39:29
00:44:32.879                : en:00:44:32
00:48:10.888                : en:00:48:10
00:56:32.639                : en:00:56:32
01:02:03.178                : en:01:02:03
01:07:03.019                : en:01:07:03
01:12:12.620                : en:01:12:12
01:16:22.495                : en:01:16:22
01:21:41.647                : en:01:21:41
01:26:30.102                : en:01:26:30
01:32:35.675                : en:01:32:35
01:41:34.255                : en:01:41:34
01:50:13.315                : en:01:50:13
     
Похожих раздач нет


Привет, гость
- Запомнить
Регистрация
Информация

Торрент трекер ExKinoRay.TV

Здесь вы можете скачать новые фильмы, сериалы, игры, музыку, софт и многое другое. Большая скорость скачивания на мультитрекерных раздачах. Всё абсолютно бесплатно.