Детсадовский полицейский 2 | Kindergarten Cop 2 | 2016 | Blu-Ray Remux (1080p) | Dub (Лицензия) - ExKinoRay Одобрено администрацией

Участники
  • Раздают0
  • Качают0
  • Просмотров129
  • Скачали2
  • Комментариев0
  • Список файлов1
Залил раздачу
Поблагодарить
Характеристики
Вес21.10 GB (22,651,838,320)
Залит2016-05-20 17:25:37 Обновлено2016-05-20 17:25:37
Сетевая Нет
   http://s015.radikal.ru/i332/1604/ed/2f3358c0cd05.gif  http://s019.radikal.ru/i635/1604/71/1631672318a1.gif
Чтобы скачать, необходимо авторизоваться или зарегистрироваться.
Статус: Одобрено администрацией
Хотите видеть детали Раздачи пройдите авторизацию или регистрацию!

Спасибо за понимание...
Просьба отключить блокировщики рекламы на странице скриншотов по адресу: http://3.lostpic.net/, этим Вы поможете существованию проекта. Заранее спасибо!
General
Unique ID                   : 211210875802843401201003263367433454182 (0x9EE5BC2ADA89749B8B2CC760D1C88266)
Complete name               : F:\Video\Kindergarten.Cop.2.2016.BDREMUX.1080p.ExKinoRay.mkv
Format                      : Matroska
Format version              : Version 4 / Version 2
File size                   : 21.1 GiB
Duration                    : 1h 40mn
Overall bit rate mode       : Variable
Overall bit rate            : 30.2 Mbps
Movie name                  : Kindergarten.Cop.2.2016.BDREMUX.1080p.ExKinoRay
Encoded date                : UTC 2016-05-20 13:59:55
Writing application         : mkvmerge v8.3.0 ('Over the Horizon') 64bit
Writing library             : libebml v1.3.1 + libmatroska v1.4.2

Video
ID                          : 1
Format                      : AVC
Format/Info                 : Advanced Video Codec
Format profile              : High@L4.1
Format settings, CABAC      : Yes
Format settings, ReFrames   : 4 frames
Format settings, GOP        : M=3, N=12
Codec ID                    : V_MPEG4/ISO/AVC
Duration                    : 1h 40mn
Bit rate mode               : Variable
Bit rate                    : 25.9 Mbps
Maximum bit rate            : 34.0 Mbps
Width                       : 1 920 pixels
Height                      : 1 080 pixels
Display aspect ratio        : 16:9
Frame rate mode             : Constant
Frame rate                  : 23.976 (24000/1001) fps
Color space                 : YUV
Chroma subsampling          : 4:2:0
Bit depth                   : 8 bits
Scan type                   : Progressive
Bits/(Pixel*Frame)          : 0.520
Stream size                 : 18.1 GiB (86%)
Language                    : English
Default                     : No
Forced                      : No

Audio #1
ID                          : 2
Format                      : AC-3
Format/Info                 : Audio Coding 3
Mode extension              : CM (complete main)
Format settings, Endianness : Big
Codec ID                    : A_AC3
Duration                    : 1h 40mn
Bit rate mode               : Constant
Bit rate                    : 384 Kbps
Channel(s)                  : 6 channels
Channel positions           : Front: L C R, Side: L R, LFE
Sampling rate               : 48.0 KHz
Frame rate                  : 31.250 fps (1536 spf)
Compression mode            : Lossy
Stream size                 : 275 MiB (1%)
Title                       : R5
Language                    : Russian
Default                     : Yes
Forced                      : No

Audio #2
ID                          : 3
Format                      : DTS
Format/Info                 : Digital Theater Systems
Format profile              : MA / Core
Mode                        : 16
Format settings, Endianness : Big
Codec ID                    : A_DTS
Duration                    : 1h 40mn
Bit rate mode               : Variable / Constant
Bit rate                    : 3 840 Kbps / 1 509 Kbps
Channel(s)                  : 6 channels
Channel positions           : Front: L C R, Side: L R, LFE
Sampling rate               : 48.0 KHz
Frame rate                  : 93.750 fps (512 spf)
Bit depth                   : 24 bits
Compression mode            : Lossless / Lossy
Stream size                 : 2.74 GiB (13%)
Title                       : Original
Language                    : English
Default                     : No
Forced                      : No

Text
ID                          : 4
Format                      : UTF-8
Codec ID                    : S_TEXT/UTF8
Codec ID/Info               : UTF-8 Plain Text
Duration                    : 1h 38mn
Bit rate                    : 73 bps
Count of elements           : 1495
Stream size                 : 53.4 KiB (0%)
Language                    : English
Default                     : No
Forced                      : No

Menu #1
00:00:00.000                : en:Chapter 01
00:07:32.535                : en:Chapter 02
00:14:16.564                : en:Chapter 03
00:22:52.829                : en:Chapter 04
00:34:34.614                : en:Chapter 05
00:43:36.447                : en:Chapter 06
00:53:14.149                : en:Chapter 07
01:00:23.703                : en:Chapter 08
01:10:18.214                : en:Chapter 09
01:18:35.961                : en:Chapter 10
01:26:37.859                : en:Chapter 11
01:34:38.464                : en:Chapter 12

Menu #2
00:00:00.000                : en:00:00:00.000
00:07:32.535                : en:00:07:32.535
00:14:16.564                : en:00:14:16.564
00:22:52.830                : en:00:22:52.830
00:34:34.698                : en:00:34:34.698
00:43:36.614                : en:00:43:36.614
00:53:14.233                : en:00:53:14.233
01:00:23.787                : en:01:00:23.787
01:10:18.381                : en:01:10:18.381
01:18:36.128                : en:01:18:36.128
01:26:38.026                : en:01:26:38.026
01:34:38.464                : en:01:34:38.464
     


Привет, гость
- Запомнить
Регистрация
Информация

Торрент трекер ExKinoRay.TV

Здесь вы можете скачать новые фильмы, сериалы, игры, музыку, софт и многое другое. Большая скорость скачивания на мультитрекерных раздачах. Всё абсолютно бесплатно.