John Fogerty - Stagecoach: Californias Country Music Festival | 2016 | WEB-DLRip - Лумина Одобрено администрацией

Участники
  • Раздают0
  • Качают0
  • Просмотров251
  • Скачали2
  • Комментариев0
  • Список файлов1
Залил раздачу
Поблагодарить
Характеристики
Вес1.09 GB (1,171,212,288)
Залит2016-06-02 10:32:16 Обновлено2016-06-02 10:32:16
Сетевая Нет
  http://s018.radikal.ru/i507/1605/a4/ac035f69f65b.gif
Чтобы скачать, необходимо авторизоваться или зарегистрироваться.
Статус: Одобрено администрацией
Хотите видеть детали Раздачи пройдите авторизацию или регистрацию!

Спасибо за понимание...
General
Полное имя                               : C:\Documents and Settings\Администратор\Рабочий стол\Новая папка (18)\John Fogerty-Stagecoach.Country.Music.Festival.2016.XviD.WEB-DLRip-Lumina.avi
Формат                                   : AVI
Формат/Информация                        : Audio Video Interleave
Размер файла                             : 1.09 GiB
Продолжительность                        : 1h 26mn
Общий поток                              : 1 803 Kbps
Программа кодирования                    : VirtualDubMod 1.5.10.3 | www.virtualdub-fr.org || (build 2550/release)
Библиотека кодирования                   : VirtualDubMod build 2550/release

Video
Идентификатор                            : 0
Формат                                   : MPEG-4 Visual
Профиль формата                          : Advanced Simple@L5
Параметр BVOP формата                    : 2
Параметр QPel формата                    : No
Параметр GMC формата                     : No warppoints
Параметр матрицы формата                 : Default (MPEG)
Идентификатор кодека                     : XVID
Идентификатор кодека/Подсказка           : XviD
Продолжительность                        : 1h 26mn
Битрейт                                  : 1 666 Kbps
Ширина                                   : 704 pixels
Высота                                   : 400 pixels
Соотношение сторон                       : 16:9
Частота кадров                           : 23.976 fps
Цветовое пространство                    : YUV
Субдискретизация насыщенности            : 4:2:0
Битовая глубина                          : 8 bits
Тип развёртки                            : Progressive
Метод сжатия                             : Lossy
Бит/(Пиксели*Кадры)                      : 0.247
Размер потока                            : 1.01 GiB (92%)
Библиотека кодирования                   : XviD 64

Audio
Идентификатор                            : 1
Формат                                   : MPEG Audio
Версия формата                           : Version 1
Профиль формата                          : Layer 3
Идентификатор кодека                     : 55
Идентификатор кодека/Подсказка           : MP3
Продолжительность                        : 1h 26mn
Вид битрейта                             : Constant
Битрейт                                  : 128 Kbps
Каналы                                   : 2 channels
Частота                                  : 44.1 KHz
Метод сжатия                             : Lossy
Размер потока                            : 79.3 MiB (7%)
Выравнивание                             : Split accross interleaves
Продолжительность промежутка             : 42 ms (1.00 video frame)
Время предзагрузки промежутка            : 500 ms
Библиотека кодирования                   : LAME3.98r
Настройки программы                      : -m s -V 4 -q 2 -lowpass 17 -b 128
http://s016.radikal.ru/i334/1606/7b/702fb39ae4cct.jpg http://s56.radikal.ru/i154/1606/17/2888ab0223c6t.jpg
http://s017.radikal.ru/i422/1606/87/dfece97a08a7t.jpg http://s019.radikal.ru/i641/1606/2a/ac36d0ee78e9t.jpg
http://s05.radikal.ru/i178/1606/38/285c4d375cbdt.jpg http://s020.radikal.ru/i703/1606/36/0409d4db0d87t.jpg
Сет-лист:

01. Travelin' Band
02. Green River
03. Who'll Stop the Rain
04. Lookin' Out My Back Door
05. Lodi
06. Born on the Bayou
07. Ramble
08. Midnight Special (Lead Belly cover)
09. Mystic Highway
10. Hot Rod Heart
11. Keep On Chooglin'
12. Cotton Fields (Lead Belly cover)
13. Have You Ever Seen the Rain?
14. New Orleans (Gary “U.S.” Bonds cover)
15. Down on the Corner
16. Centerfield

Encore 1:
17. Up Around the Bend
18. The Old Man Down the Road
19. Fortunate Son

Encore 2:
20. Bad Moon Rising
21. Proud Mary


Привет, гость
- Запомнить
Регистрация
Информация

Торрент трекер ExKinoRay.TV

Здесь вы можете скачать новые фильмы, сериалы, игры, музыку, софт и многое другое. Большая скорость скачивания на мультитрекерных раздачах. Всё абсолютно бесплатно.