Маша и Медведь. Машкины страшилки (1-19 серии) | 2014-2016 | WEB-DL (1080p) - ExKinoRay Одобрено администрацией

Участники
  • Раздают0
  • Качают0
  • Просмотров255
  • Скачали0
  • Комментариев3
  • Список файлов19
Залил раздачу
Поблагодарить
Характеристики
Вес3.97 GB (4,260,190,124)
Залит2017-05-19 16:57:43 Обновлено2017-05-19 16:57:43
Сетевая Нет
   http://exkinoray.tv/pic/ExKinoRay.org.gif  http://s020.radikal.ru/i723/1606/5d/540859da4698.gif
Чтобы скачать, необходимо авторизоваться или зарегистрироваться.
Статус: Одобрено администрацией
Хотите видеть детали Раздачи пройдите авторизацию или регистрацию!

Спасибо за понимание...
09. Ужасающая история про бабушку и внучка. WEB-DL.1080p.x264.-merci-.mkv
Format                      : Matroska
Format version              : Version 2
File size                   : 211 MiB
Duration                    : 5mn 40s
Overall bit rate            : 5 203 Kbps
Movie name                  : Машкины Страшилки / 2014-2015 / Россия. "Анимаккорд"
Encoded date                : UTC 2016-01-30 16:14:33
Writing application         : mkvmerge v5.8.0 ('No Sleep / Pillow') built on Sep  2 2012 15:37:04
Writing library             : libebml v1.2.3 + libmatroska v1.3.0

Video
ID                          : 1
Format                      : AVC
Format/Info                 : Advanced Video Codec
Format profile              : High@L4
Format settings, CABAC      : Yes
Format settings, ReFrames   : 2 frames
Codec ID                    : V_MPEG4/ISO/AVC
Duration                    : 5mn 40s
Bit rate                    : 4 908 Kbps
Width                       : 1 920 pixels
Height                      : 1 080 pixels
Display aspect ratio        : 16:9
Frame rate mode             : Constant
Frame rate                  : 25.000 fps
Color space                 : YUV
Chroma subsampling          : 4:2:0
Bit depth                   : 8 bits
Scan type                   : Progressive
Bits/(Pixel*Frame)          : 0.095
Stream size                 : 199 MiB (94%)
Title                       : 09. Ужасающая история про бабушку и внучка. WEB-DL.1080p.x264.
Language                    : Russian
Default                     : Yes
Forced                      : No
Color range                 : Limited
Color primaries             : BT.709
Transfer characteristics    : BT.709
Matrix coefficients         : BT.709

Audio
ID                          : 2
Format                      : AC-3
Format/Info                 : Audio Coding 3
Mode extension              : CM (complete main)
Format settings, Endianness : Big
Codec ID                    : A_AC3
Duration                    : 5mn 40s
Bit rate mode               : Constant
Bit rate                    : 192 Kbps
Channel(s)                  : 2 channels
Channel positions           : Front: L R
Sampling rate               : 48.0 KHz
Compression mode            : Lossy
Stream size                 : 7.79 MiB (4%)
Title                       : rus
Language                    : Russian
Default                     : Yes
Forced                      : No
http://i74.fastpic.ru/thumb/2016/0130/da/b1c31f2ea0faae355b457fcd3bee4dda.jpeg http://i74.fastpic.ru/thumb/2016/0130/2d/068f2ad5c739d5ea75cd489a61828f2d.jpeg http://i74.fastpic.ru/thumb/2016/0130/ed/1a896f74bbf8cf731a1087ea4e02b3ed.jpeg http://i74.fastpic.ru/thumb/2016/0130/53/5e6de5fc00643c792c19c67ad3bf5a53.jpeg http://i74.fastpic.ru/thumb/2016/0130/ea/bab1a17c9223694e7903aeac924199ea.jpeg http://i74.fastpic.ru/thumb/2016/0130/ec/4151b171fdbcef340c0905c2dc91b1ec.jpeg
01. Душераздирающая повесть о тёмном лесе и маленьком жучке.
02. Жутко-страшное предание о том, как один мальчик боялся умываться.
03. Чудовищная быль о том, как некоторые боятся чудовищ
04. Тревожный сказ о потерявшемся котёнке
05. Кошмарное поверие о новогодних стишках
06. Мрачная притча о суеверной девочке
07. Угрюмый завет о сопливом мальчике
08. О Девочке, которая боялась зверушек
09. Ужасающая история про бабушку и внучка
10. Полный отчаяния миф об исторической ошибке
11. Панически невыносимая легенда о букашках
12. Тревожный сказ про Бабку-Ёжку
13. Зловещая Сага о больном животике и о Девочке, которая боялась докторов
14. Фантастический рассказ о ёжике, мальчике и зелёных гуманоидах
15. Ужасная быль о том, как мальчика перевели в другую школу
16. Жуткая байка про пастушка на пеньке
17. Приводящая в трепет сага о велосипеде - призраке
18. Страшная страшилка о страшилках
19. Жутчайшая повесть о полезных изобретениях
Похожих раздач нет

Enigma | 2017-05-19 16:58:05
 
Добавлены две страшилки
18. Страшная страшилка о страшилках
19. Жутчайшая повесть о полезных изобретениях
  |

Enigma | 2017-01-14 10:00:22
 
Добавлена
17. Приводящая в трепет сага о велосипеде - призраке
  |

Enigma | 2016-11-03 14:45:00
 
Добавлена
16. Жуткая байка про пастушка на пеньке
  |

Страницы:  1 
Привет, гость
- Запомнить
Регистрация
Информация

Торрент трекер ExKinoRay.TV

Здесь вы можете скачать новые фильмы, сериалы, игры, музыку, софт и многое другое. Большая скорость скачивания на мультитрекерных раздачах. Всё абсолютно бесплатно.