Metallica - Ride The Lightning (Deluxe Remastered) | 2016 | DVDRip - Лумина Одобрено администрацией

Участники
  • Раздают1
  • Качают1
  • Просмотров277
  • Скачали3
  • Комментариев0
  • Список файлов2
Залил раздачу
Поблагодарить
Характеристики
Вес1.34 GB (1,440,120,832)
Залит2016-06-19 20:00:07 Обновлено2016-06-19 20:00:07
Сетевая Нет
  http://s018.radikal.ru/i507/1605/a4/ac035f69f65b.gif
Чтобы скачать, необходимо авторизоваться или зарегистрироваться.
Статус: Одобрено администрацией
Хотите видеть детали Раздачи пройдите авторизацию или регистрацию!

Спасибо за понимание...
General
Полное имя : C:\Documents and Settings\Администратор\Рабочий стол\Пробный файл\Metallica-Ride.The.Lightning.2016.XviD.DVDRip-Lumina\LIVE AT THE METAL HAMMER FESTIVAL IN ST. GOARSHAUSEN. GERMANY. 14.09.1985.avi
Формат : AVI
Формат/Информация : Audio Video Interleave
Размер файла : 1.09 GiB
Продолжительность : 1h 15mn
Общий поток : 2 059 Kbps
Программа кодирования : VirtualDubMod 1.5.10.3 | www.virtualdub-fr.org || (build 2550/release)
Библиотека кодирования : VirtualDubMod build 2550/release

Video
Идентификатор : 0
Формат : MPEG-4 Visual
Профиль формата : Advanced Simple@L5
Параметр BVOP формата : 2
Параметр QPel формата : No
Параметр GMC формата : No warppoints
Параметр матрицы формата : Default (MPEG)
Идентификатор кодека : XVID
Идентификатор кодека/Подсказка : XviD
Продолжительность : 1h 15mn
Битрейт : 1 857 Kbps
Ширина : 688 pixels
Высота : 512 pixels
Соотношение сторон : 4:3
Частота кадров : 23.976 fps
Цветовое пространство : YUV
Субдискретизация насыщенности : 4:2:0
Битовая глубина : 8 bits
Тип развёртки : Progressive
Метод сжатия : Lossy
Бит/(Пиксели*Кадры) : 0.220
Размер потока : 1 007 MiB (90%)
Библиотека кодирования : XviD 64

Audio
Идентификатор : 1
Формат : AC-3
Формат/Информация : Audio Coding 3
Расширение режима : CM (complete main)
Параметр Endianness формата : Big
Идентификатор кодека : 2000
Продолжительность : 1h 15mn
Вид битрейта : Constant
Битрейт : 192 Kbps
Каналы : 2 channels
Расположение каналов : Front: L R
Частота : 48.0 KHz
Битовая глубина : 16 bits
Метод сжатия : Lossy
Размер потока : 104 MiB (9%)
Выравнивание : Split accross interleaves
Продолжительность промежутка : 42 ms (1.00 video frame)
Время предзагрузки промежутка : 500 ms
http://s015.radikal.ru/i332/1606/47/4984a06917fet.jpg http://s017.radikal.ru/i418/1606/51/900933c3a4e8t.jpg
http://s020.radikal.ru/i706/1606/19/4ba01cec389dt.jpg http://s46.radikal.ru/i111/1606/77/b9a2ff01244bt.jpg
http://s017.radikal.ru/i436/1606/82/7db56c67b451t.jpg http://s020.radikal.ru/i722/1606/03/4a3c900ae04bt.jpg
Сет-лист:
LIVE AT THE METAL HAMMER FESTIVAL IN ST. GOARSHAUSEN, GERMANY - SEPTEMBER 14, 1985

Previously Unreleased except “The Four Horsemen,” “Fade to Black” and “Seek & Destroy”

01. Creeping Death
02. Ride The Lightning
03. Disposable Heroes
04. No Remorse
05. (Anesthesia) – Pulling Teeth
06. For Whom The Bell Tolls
07. The Four Horsemen
08. Fade to Black
09. Seek and Destroy
10. Whiplash
11. Fight Fire With Fire
12. Guitar Solo
13. Am I Evil?
14. Motorbreath

LIVE AT MTV'S DAY ON THE GREEN AT OAKLAND STADIUM, OAKLAND, CA - AUGUST 31, 1985

Previously Unreleased except “For Whom the Bell Tolls”

01. Creeping Death
02. Ride the Lightning
03. For Whom the Bell Tolls


Привет, гость
- Запомнить
Регистрация
Информация

Торрент трекер ExKinoRay.TV

Здесь вы можете скачать новые фильмы, сериалы, игры, музыку, софт и многое другое. Большая скорость скачивания на мультитрекерных раздачах. Всё абсолютно бесплатно.