Metallica - Kill 'Em All (Deluxe Remastered) | 2016 | DVDRip - Лумина Одобрено администрацией

Участники
  • Раздают1
  • Качают0
  • Просмотров289
  • Скачали1
  • Комментариев2
  • Список файлов1
Залил раздачу
Поблагодарить
Характеристики
Вес0.99 GB (1,062,103,040)
Залит2016-06-19 22:41:48 Обновлено2016-06-19 22:41:48
Сетевая Нет
  http://s018.radikal.ru/i507/1605/a4/ac035f69f65b.gif
Чтобы скачать, необходимо авторизоваться или зарегистрироваться.
Статус: Одобрено администрацией
Хотите видеть детали Раздачи пройдите авторизацию или регистрацию!

Спасибо за понимание...
General
Полное имя                               : C:\Documents and Settings\Администратор\Рабочий стол\Металлика\Metallica-Kill 'em.all(deluxe.remastered)2016.XviD.DVDRip-Lumina.avi
Формат                                   : AVI
Формат/Информация                        : Audio Video Interleave
Размер файла                             : 1 013 MiB
Продолжительность                        : 1h 1mn
Общий поток                              : 2 298 Kbps
Программа кодирования                    : VirtualDubMod 1.5.10.3 | www.virtualdub-fr.org || (build 2550/release)
Библиотека кодирования                   : VirtualDubMod build 2550/release

Video
Идентификатор                            : 0
Формат                                   : MPEG-4 Visual
Профиль формата                          : Advanced Simple@L5
Параметр BVOP формата                    : 2
Параметр QPel формата                    : No
Параметр GMC формата                     : No warppoints
Параметр матрицы формата                 : Default (MPEG)
Идентификатор кодека                     : XVID
Идентификатор кодека/Подсказка           : XviD
Продолжительность                        : 1h 1mn
Битрейт                                  : 2 033 Kbps
Ширина                                   : 688 pixels
Высота                                   : 512 pixels
Соотношение сторон                       : 4:3
Частота кадров                           : 23.976 fps
Цветовое пространство                    : YUV
Субдискретизация насыщенности            : 4:2:0
Битовая глубина                          : 8 bits
Тип развёртки                            : Progressive
Метод сжатия                             : Lossy
Бит/(Пиксели*Кадры)                      : 0.241
Размер потока                            : 896 MiB (88%)
Библиотека кодирования                   : XviD 64

Audio
Идентификатор                            : 1
Формат                                   : AC-3
Формат/Информация                        : Audio Coding 3
Расширение режима                        : CM (complete main)
Параметр Endianness формата              : Big
Идентификатор кодека                     : 2000
Продолжительность                        : 1h 1mn
Вид битрейта                             : Constant
Битрейт                                  : 256 Kbps
Каналы                                   : 2 channels
Расположение каналов                     : Front: L R
Частота                                  : 48.0 KHz
Битовая глубина                          : 16 bits
Метод сжатия                             : Lossy
Размер потока                            : 113 MiB (11%)
Выравнивание                             : Split accross interleaves
Продолжительность промежутка             : 42 ms (1.00 video frame)
Время предзагрузки промежутка            : 500 ms
http://s46.radikal.ru/i111/1606/9d/c1812813fedet.jpg http://s017.radikal.ru/i439/1606/d9/57f0927ea9abt.jpg
http://s017.radikal.ru/i411/1606/2f/8272edef7431t.jpg http://i045.radikal.ru/1606/55/4c49217e4fa1t.jpg
http://s019.radikal.ru/i627/1606/c6/04800aff744et.jpg http://i075.radikal.ru/1606/c0/56865aaa6e0ct.jpg
Сет-лист:
LIVE AT THE METRO IN CHICAGO ON AUGUST 12TH, 1983

Previously Unreleased except “No Remorse” and “Metal Miltia”

01. Hit the Lights (Video Only/No Audio)
02. The Four Horsemen (Video Only/No Audio)
03. Jump in the Fire (Video Only/Partial Audio)
04. Phantom Lord
05. No Remorse
06. (Anesthesia) - Pulling Teeth
07. Whiplash
08. Seek and Destroy
09. Guitar Solo
10. Metal Militia

Лумина | 2016-06-19 22:46:40
 
mister.hats писал
Поправьте пожалуйста...
Продолжительность: AC3, 2 ch, 256 Кбит/с
Перевод: 01:01:36

Спасибо, уже))
  |

mister.hats | 2016-06-19 22:44:13
 
Спасибо
  |

Страницы:  1 
Привет, гость
- Запомнить
Регистрация
Информация

Торрент трекер ExKinoRay.TV

Здесь вы можете скачать новые фильмы, сериалы, игры, музыку, софт и многое другое. Большая скорость скачивания на мультитрекерных раздачах. Всё абсолютно бесплатно.