Большой всплеск | A Bigger Splash | 2015 | BDRip (720p) | Dub (iTunes) - ExKinoRay Одобрено администрацией

Участники
  • Раздают0
  • Качают2
  • Просмотров175
  • Скачали1
  • Комментариев1
  • Список файлов1
Залил раздачу
Поблагодарить
Характеристики
Вес6.67 GB (7,161,295,628)
Залит2016-07-23 16:27:04 Обновлено2016-07-23 16:27:04
Сетевая Нет
   http://s015.radikal.ru/i332/1604/ed/2f3358c0cd05.gif  http://s019.radikal.ru/i635/1604/71/1631672318a1.gif
Чтобы скачать, необходимо авторизоваться или зарегистрироваться.
Статус: Одобрено администрацией
Хотите видеть детали Раздачи пройдите авторизацию или регистрацию!

Спасибо за понимание...
Просьба отключить блокировщики рекламы на странице скриншотов по адресу: http://3.lostpic.net/, этим Вы поможете существованию проекта. Заранее спасибо!
General
Unique ID                   : 216838200326261394092075676323121633590 (0xA32184AFEF15067FBFA6496264C29936)
Complete name               : G:\Video\A.Bigger.Splash.2015.D.BDRip.720p.ExKinoRay.mkv
Format                      : Matroska
Format version              : Version 4 / Version 2
File size                   : 6.67 GiB
Duration                    : 2h 4mn
Overall bit rate            : 7 682 Kbps
Movie name                  : A.Bigger.Splash.2015.D.BDRip.720p.ExKinoRay
Encoded date                : UTC 2016-07-23 13:20:22
Writing application         : mkvmerge v8.3.0 ('Over the Horizon') 64bit
Writing library             : libebml v1.3.1 + libmatroska v1.4.2

Video
ID                          : 1
Format                      : AVC
Format/Info                 : Advanced Video Codec
Format profile              : High@L4.1
Format settings, CABAC      : Yes
Format settings, ReFrames   : 9 frames
Codec ID                    : V_MPEG4/ISO/AVC
Duration                    : 2h 4mn
Bit rate                    : 5 786 Kbps
Width                       : 1 280 pixels
Height                      : 690 pixels
Display aspect ratio        : 1.85:1
Frame rate mode             : Constant
Frame rate                  : 24.000 fps
Color space                 : YUV
Chroma subsampling          : 4:2:0
Bit depth                   : 8 bits
Scan type                   : Progressive
Bits/(Pixel*Frame)          : 0.273
Stream size                 : 5.02 GiB (75%)
Writing library             : x264 core 142 r2431+42 c69a006 tMod [8-bit@all X86_64]
Encoding settings           : cabac=1 / ref=9 / deblock=1:-3:-3 / analyse=0x3:0x133 / me=umh / subme=11 / psy=1 / fade_compensate=0.00 / psy_rd=1.05:1.00 / mixed_ref=1 / me_range=32 / chroma_me=1 / trellis=2 / 8x8dct=1 / cqm=0 / deadzone=21,11 / fast_pskip=0 / chroma_qp_offset=-4 / threads=12 / lookahead_threads=2 / sliced_threads=0 / nr=0 / decimate=0 / interlaced=0 / bluray_compat=0 / constrained_intra=0 / fgo=0 / bframes=8 / b_pyramid=2 / b_adapt=2 / b_bias=0 / direct=3 / weightb=1 / open_gop=0 / weightp=2 / keyint=240 / keyint_min=24 / scenecut=40 / intra_refresh=0 / rc_lookahead=60 / rc=crf / mbtree=0 / crf=18.7000 / qcomp=0.60 / qpmin=0:0:0 / qpmax=69:69:69 / qpstep=4 / vbv_maxrate=40000 / vbv_bufsize=30000 / crf_max=0.0 / nal_hrd=none / filler=0 / ip_ratio=1.40 / pb_ratio=1.30 / aq=1:1.00 / aq-sensitivity=10.00 / aq-factor=1.00:1.00:1.00 / aq2=0 / aq3=0
Language                    : English
Default                     : Yes
Forced                      : No

Audio #1
ID                          : 2
Format                      : AC-3
Format/Info                 : Audio Coding 3
Mode extension              : CM (complete main)
Format settings, Endianness : Big
Codec ID                    : A_AC3
Duration                    : 2h 4mn
Bit rate mode               : Constant
Bit rate                    : 384 Kbps
Channel(s)                  : 6 channels
Channel positions           : Front: L C R, Side: L R, LFE
Sampling rate               : 48.0 KHz
Frame rate                  : 31.250 fps (1536 spf)
Compression mode            : Lossy
Stream size                 : 341 MiB (5%)
Title                       : DUB [iTunes]
Language                    : Russian
Default                     : Yes
Forced                      : No

Audio #2
ID                          : 3
Format                      : DTS
Format/Info                 : Digital Theater Systems
Mode                        : 16
Format settings, Endianness : Big
Codec ID                    : A_DTS
Duration                    : 2h 4mn
Bit rate mode               : Constant
Bit rate                    : 1 509 Kbps
Channel(s)                  : 6 channels
Channel positions           : Front: L C R, Side: L R, LFE
Sampling rate               : 48.0 KHz
Frame rate                  : 93.750 fps (512 spf)
Bit depth                   : 24 bits
Compression mode            : Lossy
Stream size                 : 1.31 GiB (20%)
Title                       : Original
Language                    : English
Default                     : No
Forced                      : No

Text #1
ID                          : 4
Format                      : UTF-8
Codec ID                    : S_TEXT/UTF8
Codec ID/Info               : UTF-8 Plain Text
Duration                    : 1h 58mn
Bit rate                    : 46 bps
Count of elements           : 1205
Stream size                 : 40.9 KiB (0%)
Title                       : Full
Language                    : English
Default                     : No
Forced                      : No

Text #2
ID                          : 5
Format                      : UTF-8
Codec ID                    : S_TEXT/UTF8
Codec ID/Info               : UTF-8 Plain Text
Duration                    : 1h 59mn
Bit rate                    : 53 bps
Count of elements           : 1423
Stream size                 : 47.2 KiB (0%)
Title                       : SDH
Language                    : English
Default                     : No
Forced                      : No

Menu
00:00:00.000                : en:Chapter 1
00:10:12.333                : en:Chapter 2
00:19:03.250                : en:Chapter 3
00:29:16.667                : en:Chapter 4
00:39:19.875                : en:Chapter 5
00:49:19.208                : en:Chapter 6
01:01:37.750                : en:Chapter 7
01:11:13.708                : en:Chapter 8
01:21:06.167                : en:Chapter 9
01:30:41.125                : en:Chapter 10
01:40:09.708                : en:Chapter 11
02:00:17.417                : en:Chapter 12
http://lostpix.com/thumbs/2016-06/30/2lk0gci5v7xlqklxczsmrd8wj.jpg http://lostpix.com/thumbs/2016-06/30/tsl3qd2ck4keph31xdclf34rk.jpg http://lostpix.com/thumbs/2016-06/30/7vht62bgtskxjm8dxcs5is8l4.jpg http://lostpix.com/thumbs/2016-06/30/cdwuntfvcbmeh6xst75q0sn16.jpg http://lostpix.com/thumbs/2016-06/30/kbynfl9s5d8eqcmz6w1lwi5ev.jpg http://lostpix.com/thumbs/2016-06/30/h6rs8g6cr4vm8ykcempqcklya.jpg

селезень | 2016-07-23 16:27:44
 
Замена на iTunes.
  |

Страницы:  1 
Привет, гость
- Запомнить
Регистрация
Информация

Торрент трекер ExKinoRay.TV

Здесь вы можете скачать новые фильмы, сериалы, игры, музыку, софт и многое другое. Большая скорость скачивания на мультитрекерных раздачах. Всё абсолютно бесплатно.