Бэтмен против Супермена: На заре справедливости | Batman v Superman: Dawn of Justice | 2016 | BDRip (720p) | Dub (Лицензия) - ExKinoRay Одобрено администрацией

Участники
  • Раздают0
  • Качают1
  • Просмотров224
  • Скачали2
  • Комментариев0
  • Список файлов1
Залил раздачу
Поблагодарить
Характеристики
Вес6.39 GB (6,864,307,710)
Залит2016-07-17 01:34:24 Обновлено2016-07-17 01:44:46
Сетевая Нет
   http://s015.radikal.ru/i332/1604/ed/2f3358c0cd05.gif  http://s019.radikal.ru/i635/1604/71/1631672318a1.gif
Чтобы скачать, необходимо авторизоваться или зарегистрироваться.
Статус: Одобрено администрацией
Хотите видеть детали Раздачи пройдите авторизацию или регистрацию!

Спасибо за понимание...
Просьба отключить блокировщики рекламы на странице скриншотов по адресу: http://3.lostpic.net/, этим Вы поможете существованию проекта. Заранее спасибо!
General
Unique ID                   : 179821971322002016193243013853606553797 (0x874873B136129A7FB1BE72D8E21BA8C5)
Complete name               : F:\Video\Muxing\Batman.V.Superman.Dawn.Of.Justice.2016.THEATRICAL.D.BDRip.720p.ExKinoRay.mkv
Format                      : Matroska
Format version              : Version 4 / Version 2
File size                   : 6.46 GiB
Duration                    : 2h 31mn
Overall bit rate            : 6 098 Kbps
Movie name                  : Batman.V.Superman.Dawn.Of.Justice.2016.THEATRICAL.D.BDRip.720p.ExKinoRay
Encoded date                : UTC 2016-07-16 22:21:32
Writing application         : mkvmerge v8.3.0 ('Over the Horizon') 64bit
Writing library             : libebml v1.3.1 + libmatroska v1.4.2

Video
ID                          : 1
Format                      : AVC
Format/Info                 : Advanced Video Codec
Format profile              : High@L4.1
Format settings, CABAC      : Yes
Format settings, ReFrames   : 12 frames
Codec ID                    : V_MPEG4/ISO/AVC
Duration                    : 2h 31mn
Bit rate                    : 5 008 Kbps
Width                       : 1 280 pixels
Height                      : 534 pixels
Display aspect ratio        : 2.40:1
Frame rate mode             : Constant
Frame rate                  : 23.976 (24000/1001) fps
Color space                 : YUV
Chroma subsampling          : 4:2:0
Bit depth                   : 8 bits
Scan type                   : Progressive
Bits/(Pixel*Frame)          : 0.306
Stream size                 : 5.31 GiB (82%)
Writing library             : x264 core 142 r2431+42 c69a006 tMod [8-bit@all X86_64]
Encoding settings           : cabac=1 / ref=12 / deblock=1:-3:-3 / analyse=0x3:0x133 / me=umh / subme=11 / psy=1 / fade_compensate=0.00 / psy_rd=1.05:1.00 / mixed_ref=1 / me_range=32 / chroma_me=1 / trellis=2 / 8x8dct=1 / cqm=0 / deadzone=21,11 / fast_pskip=0 / chroma_qp_offset=-4 / threads=12 / lookahead_threads=2 / sliced_threads=0 / nr=0 / decimate=0 / interlaced=0 / bluray_compat=0 / constrained_intra=0 / fgo=0 / bframes=8 / b_pyramid=2 / b_adapt=2 / b_bias=0 / direct=3 / weightb=1 / open_gop=0 / weightp=2 / keyint=240 / keyint_min=23 / scenecut=40 / intra_refresh=0 / rc_lookahead=60 / rc=crf / mbtree=0 / crf=19.5000 / qcomp=0.60 / qpmin=0:0:0 / qpmax=69:69:69 / qpstep=4 / vbv_maxrate=40000 / vbv_bufsize=30000 / crf_max=0.0 / nal_hrd=none / filler=0 / ip_ratio=1.40 / pb_ratio=1.30 / aq=1:1.00 / aq-sensitivity=10.00 / aq-factor=1.00:1.00:1.00 / aq2=0 / aq3=0
Language                    : English
Default                     : Yes
Forced                      : No

Audio #1
ID                          : 2
Format                      : AC-3
Format/Info                 : Audio Coding 3
Mode extension              : CM (complete main)
Format settings, Endianness : Big
Codec ID                    : A_AC3
Duration                    : 2h 31mn
Bit rate mode               : Constant
Bit rate                    : 448 Kbps
Channel(s)                  : 6 channels
Channel positions           : Front: L C R, Side: L R, LFE
Sampling rate               : 48.0 KHz
Frame rate                  : 31.250 fps (1536 spf)
Compression mode            : Lossy
Stream size                 : 486 MiB (7%)
Title                       : DUB [Blu-ray CEE]
Language                    : Russian
Default                     : Yes
Forced                      : No

Audio #2
ID                          : 3
Format                      : AC-3
Format/Info                 : Audio Coding 3
Mode extension              : CM (complete main)
Format settings, Endianness : Big
Codec ID                    : A_AC3
Duration                    : 2h 31mn
Bit rate mode               : Constant
Bit rate                    : 640 Kbps
Channel(s)                  : 6 channels
Channel positions           : Front: L C R, Side: L R, LFE
Sampling rate               : 48.0 KHz
Frame rate                  : 31.250 fps (1536 spf)
Compression mode            : Lossy
Stream size                 : 694 MiB (10%)
Title                       : Original
Language                    : English
Default                     : No
Forced                      : No

Text #1
ID                          : 4
Format                      : UTF-8
Codec ID                    : S_TEXT/UTF8
Codec ID/Info               : UTF-8 Plain Text
Duration                    : 2h 30mn
Bit rate                    : 4 bps
Count of elements           : 100
Stream size                 : 4.72 KiB (0%)
Title                       : Forced  [iTunes]
Language                    : Russian
Default                     : Yes
Forced                      : No

Text #2
ID                          : 5
Format                      : UTF-8
Codec ID                    : S_TEXT/UTF8
Codec ID/Info               : UTF-8 Plain Text
Duration                    : 2h 31mn
Bit rate                    : 57 bps
Count of elements           : 1293
Stream size                 : 63.8 KiB (0%)
Title                       : Full [iTunes]
Language                    : Russian
Default                     : No
Forced                      : No

Text #3
ID                          : 6
Format                      : UTF-8
Codec ID                    : S_TEXT/UTF8
Codec ID/Info               : UTF-8 Plain Text
Duration                    : 2h 22mn
Bit rate                    : 35 bps
Count of elements           : 1149
Stream size                 : 36.7 KiB (0%)
Title                       : Full
Language                    : English
Default                     : No
Forced                      : No

Text #4
ID                          : 7
Format                      : UTF-8
Codec ID                    : S_TEXT/UTF8
Codec ID/Info               : UTF-8 Plain Text
Duration                    : 2h 31mn
Bit rate                    : 39 bps
Count of elements           : 1474
Stream size                 : 43.5 KiB (0%)
Title                       : SDH
Language                    : English
Default                     : No
Forced                      : No

Menu
00:00:00.000                : en:00:00:00.000
00:09:50.048                : en:00:09:50.048
00:20:45.786                : en:00:20:45.786
00:29:58.672                : en:00:29:58.672
00:38:46.616                : en:00:38:46.616
00:49:25.921                : en:00:49:25.921
00:59:21.558                : en:00:59:21.558
01:10:06.202                : en:01:10:06.202
01:21:15.120                : en:01:21:15.120
01:30:00.312                : en:01:30:00.312
01:38:20.812                : en:01:38:20.812
01:49:57.382                : en:01:49:57.382
02:01:49.052                : en:02:01:49.052
02:10:40.416                : en:02:10:40.416
02:18:41.313                : en:02:18:41.313
02:23:50.372                : en:02:23:50.372
http://lostpix.com/thumbs/2016-07/12/cf2chli5i67ae8p7q5bnsdilv.jpg http://lostpix.com/thumbs/2016-07/12/n9kq3nwtp56yetuexstu9owm7.jpg http://lostpix.com/thumbs/2016-07/12/1vhm9vlicdwywbts1hwk319kt.jpg http://lostpix.com/thumbs/2016-07/12/izfuv6f4hdosmrw9gjaz27nbz.jpg http://lostpix.com/thumbs/2016-07/12/e0psiex3zt9t2c9kp7owfpl7g.jpg http://lostpix.com/thumbs/2016-07/12/ikh8pg75yf9m9y7iy0g9pw54i.jpg http://lostpix.com/thumbs/2016-07/12/ait7o2hwzw3wqr2p5ze2vmpvt.jpg http://lostpix.com/thumbs/2016-07/12/nafi5nid7frymen97apo26jqa.jpg http://lostpix.com/thumbs/2016-07/12/acmqx64yactokwlpe02in1fng.jpg


Привет, гость
- Запомнить
Регистрация
Информация

Торрент трекер ExKinoRay.TV

Здесь вы можете скачать новые фильмы, сериалы, игры, музыку, софт и многое другое. Большая скорость скачивания на мультитрекерных раздачах. Всё абсолютно бесплатно.