Хардкор | Hardcore Henry | 2015 | Blu-Ray Remux (1080p) | Dub (iTunes) - ExKinoRay Одобрено администрацией

Участники
  • Раздают0
  • Качают2
  • Просмотров215
  • Скачали1
  • Комментариев0
  • Список файлов1
Залил раздачу
Поблагодарить
Характеристики
Вес25.96 GB (27,875,600,534)
Залит2016-07-14 22:12:35 Обновлено0000-00-00 00:00:00
Сетевая Нет
   http://s015.radikal.ru/i332/1604/ed/2f3358c0cd05.gif  http://s019.radikal.ru/i635/1604/71/1631672318a1.gif
Чтобы скачать, необходимо авторизоваться или зарегистрироваться.
Статус: Одобрено администрацией
Хотите видеть детали Раздачи пройдите авторизацию или регистрацию!

Спасибо за понимание...
Просьба отключить блокировщики рекламы на странице скриншотов по адресу: http://3.lostpic.net/, этим Вы поможете существованию проекта. Заранее спасибо!
General
Unique ID                   : 189969667520041458709577605875063097321 (0x8EEAD3BE267AE64C8B302BCF568487E9)
Complete name               : F:\Video\Hardcore.Henry.2015.BDREMUX.1080p.ExKinoRay.mkv
Format                      : Matroska
Format version              : Version 4 / Version 2
File size                   : 26.0 GiB
Duration                    : 1h 36mn
Overall bit rate mode       : Variable
Overall bit rate            : 38.4 Mbps
Movie name                  : Hardcore.Henry.2015.BDREMUX.1080p.ExKinoRay
Encoded date                : UTC 2016-07-14 18:51:12
Writing application         : mkvmerge v8.3.0 ('Over the Horizon') 64bit
Writing library             : libebml v1.3.1 + libmatroska v1.4.2

Video
ID                          : 1
Format                      : AVC
Format/Info                 : Advanced Video Codec
Format profile              : High@L4.1
Format settings, CABAC      : Yes
Format settings, ReFrames   : 4 frames
Format settings, GOP        : M=3, N=12
Codec ID                    : V_MPEG4/ISO/AVC
Duration                    : 1h 36mn
Bit rate mode               : Variable
Bit rate                    : 33.7 Mbps
Maximum bit rate            : 37.0 Mbps
Width                       : 1 920 pixels
Height                      : 1 080 pixels
Display aspect ratio        : 16:9
Frame rate mode             : Constant
Frame rate                  : 23.976 (24000/1001) fps
Color space                 : YUV
Chroma subsampling          : 4:2:0
Bit depth                   : 8 bits
Scan type                   : Progressive
Bits/(Pixel*Frame)          : 0.679
Stream size                 : 22.8 GiB (88%)
Language                    : English
Default                     : Yes
Forced                      : No

Audio #1
ID                          : 2
Format                      : AC-3
Format/Info                 : Audio Coding 3
Mode extension              : CM (complete main)
Format settings, Endianness : Big
Codec ID                    : A_AC3
Duration                    : 1h 36mn
Bit rate mode               : Constant
Bit rate                    : 384 Kbps
Channel(s)                  : 6 channels
Channel positions           : Front: L C R, Side: L R, LFE
Sampling rate               : 48.0 KHz
Frame rate                  : 31.250 fps (1536 spf)
Compression mode            : Lossy
Delay relative to video     : 4s 500ms
Stream size                 : 266 MiB (1%)
Title                       : iTunes
Language                    : Russian
Default                     : Yes
Forced                      : No

Audio #2
ID                          : 3
Format                      : DTS
Format/Info                 : Digital Theater Systems
Format profile              : MA / Core
Mode                        : 16
Format settings, Endianness : Big
Codec ID                    : A_DTS
Duration                    : 1h 36mn
Bit rate mode               : Variable / Constant
Bit rate                    : 4 256 Kbps / 1 509 Kbps
Channel(s)                  : 6 channels
Channel positions           : Front: L C R, Side: L R, LFE
Sampling rate               : 48.0 KHz
Frame rate                  : 93.750 fps (512 spf)
Bit depth                   : 24 bits
Compression mode            : Lossless / Lossy
Stream size                 : 2.88 GiB (11%)
Title                       : Original
Language                    : English
Default                     : No
Forced                      : No

Text #1
ID                          : 4
Format                      : UTF-8
Codec ID                    : S_TEXT/UTF8
Codec ID/Info               : UTF-8 Plain Text
Duration                    : 1h 32mn
Bit rate                    : 28 bps
Count of elements           : 680
Stream size                 : 19.1 KiB (0%)
Title                       : Full
Language                    : English
Default                     : No
Forced                      : No

Text #2
ID                          : 5
Format                      : UTF-8
Codec ID                    : S_TEXT/UTF8
Codec ID/Info               : UTF-8 Plain Text
Duration                    : 1h 32mn
Bit rate                    : 38 bps
Count of elements           : 1042
Stream size                 : 26.2 KiB (0%)
Title                       : SDH
Language                    : English
Default                     : No
Forced                      : No

Menu
00:00:00.000                : en:00:00:00.000
00:04:04.494                : en:00:04:04.494
00:08:36.641                : en:00:08:36.641
00:14:12.935                : en:00:14:12.935
00:18:45.333                : en:00:18:45.333
00:22:38.816                : en:00:22:38.816
00:26:12.237                : en:00:26:12.237
00:30:05.345                : en:00:30:05.345
00:34:30.193                : en:00:34:30.193
00:37:44.429                : en:00:37:44.429
00:42:19.537                : en:00:42:19.537
00:47:05.406                : en:00:47:05.406
00:52:51.085                : en:00:52:51.085
00:56:00.482                : en:00:56:00.482
01:03:47.824                : en:01:03:47.824
01:11:23.988                : en:01:11:23.988
01:15:54.884                : en:01:15:54.884
01:22:04.670                : en:01:22:04.670
01:24:10.045                : en:01:24:10.045
01:29:31.116                : en:01:29:31.116
http://lostpix.com/thumbs/2016-07/14/z04815y9vpx430tsb6n8g6xfd.jpg http://lostpix.com/thumbs/2016-07/14/4a2oaro4pexdis1blzv42qhfn.jpg http://lostpix.com/thumbs/2016-07/14/natd5t6junxn43b76kpvl1l7t.jpg http://lostpix.com/thumbs/2016-07/14/cn1h1eh2ylvih63utgnlhkgr1.jpg http://lostpix.com/thumbs/2016-07/14/34qd1afd2m47uvu7h4dcvyv2c.jpg http://lostpix.com/thumbs/2016-07/14/80merc7kt0btfelr9hcu392vc.jpg http://lostpix.com/thumbs/2016-07/14/5h1q03n9frqhn1n3ks7va64dp.jpg


Привет, гость
- Запомнить
Регистрация
Информация

Торрент трекер ExKinoRay.TV

Здесь вы можете скачать новые фильмы, сериалы, игры, музыку, софт и многое другое. Большая скорость скачивания на мультитрекерных раздачах. Всё абсолютно бесплатно.