Парикмахерская 3 | Barbershop: The Next Cut | 2016 | Blu-Ray Remux (1080p) | MVO - ExKinoRay Одобрено администрацией

Участники
  • Раздают0
  • Качают1
  • Просмотров239
  • Скачали2
  • Комментариев0
  • Список файлов1
Залил раздачу
Поблагодарить
Характеристики
Вес29.99 GB (32,201,114,338)
Залит2016-07-18 05:40:43 Обновлено0000-00-00 00:00:00
Сетевая Нет
   http://s015.radikal.ru/i332/1604/ed/2f3358c0cd05.gif  http://s019.radikal.ru/i635/1604/71/1631672318a1.gif
Чтобы скачать, необходимо авторизоваться или зарегистрироваться.
Статус: Одобрено администрацией
Хотите видеть детали Раздачи пройдите авторизацию или регистрацию!

Спасибо за понимание...
Просьба отключить блокировщики рекламы на странице скриншотов по адресу: http://3.lostpic.net/, этим Вы поможете существованию проекта. Заранее спасибо!
General
Unique ID                   : 214522667829375177260480518327119637874 (0xA163901EF2EC3E2EBF95C98F3137ED72)
Complete name               : F:\Video\Barbershop.The.Next.Cut.2016.MVO.BDREMUX.1080p.ExKinoRay.mkv
Format                      : Matroska
Format version              : Version 4 / Version 2
File size                   : 30.0 GiB
Duration                    : 1h 51mn
Overall bit rate mode       : Variable
Overall bit rate            : 38.4 Mbps
Movie name                  : Barbershop.The.Next.Cut.2016.MVO.BDREMUX.1080p.ExKinoRay
Encoded date                : UTC 2016-07-18 02:11:41
Writing application         : mkvmerge v8.3.0 ('Over the Horizon') 64bit
Writing library             : libebml v1.3.1 + libmatroska v1.4.2

Video
ID                          : 1
Format                      : AVC
Format/Info                 : Advanced Video Codec
Format profile              : High@L4.1
Format settings, CABAC      : Yes
Format settings, ReFrames   : 4 frames
Codec ID                    : V_MPEG4/ISO/AVC
Duration                    : 1h 51mn
Bit rate mode               : Variable
Bit rate                    : 34.6 Mbps
Maximum bit rate            : 40.0 Mbps
Width                       : 1 920 pixels
Height                      : 1 080 pixels
Display aspect ratio        : 16:9
Frame rate mode             : Constant
Frame rate                  : 23.976 (24000/1001) fps
Color space                 : YUV
Chroma subsampling          : 4:2:0
Bit depth                   : 8 bits
Scan type                   : Progressive
Bits/(Pixel*Frame)          : 0.695
Stream size                 : 27.0 GiB (90%)
Language                    : English
Default                     : No
Forced                      : No

Audio #1
ID                          : 2
Format                      : AC-3
Format/Info                 : Audio Coding 3
Mode extension              : CM (complete main)
Format settings, Endianness : Big
Codec ID                    : A_AC3
Duration                    : 1h 51mn
Bit rate mode               : Constant
Bit rate                    : 384 Kbps
Channel(s)                  : 2 channels
Channel positions           : Front: L R
Sampling rate               : 48.0 KHz
Frame rate                  : 31.250 fps (1536 spf)
Compression mode            : Lossy
Delay relative to video     : 2s 0ms
Stream size                 : 307 MiB (1%)
Title                       : MVO [Parovoz Production]
Language                    : Russian
Default                     : Yes
Forced                      : No

Audio #2
ID                          : 3
Format                      : DTS
Format/Info                 : Digital Theater Systems
Format profile              : MA / Core
Mode                        : 16
Format settings, Endianness : Big
Codec ID                    : A_DTS
Duration                    : 1h 51mn
Bit rate mode               : Variable / Constant
Bit rate                    : 3 474 Kbps / 1 509 Kbps
Channel(s)                  : 6 channels
Channel positions           : Front: L C R, Side: L R, LFE
Sampling rate               : 48.0 KHz
Frame rate                  : 93.750 fps (512 spf)
Bit depth                   : 24 bits
Compression mode            : Lossless / Lossy
Stream size                 : 2.71 GiB (9%)
Title                       : Full
Language                    : English
Default                     : No
Forced                      : No

Text #1
ID                          : 4
Format                      : UTF-8
Codec ID                    : S_TEXT/UTF8
Codec ID/Info               : UTF-8 Plain Text
Duration                    : 1h 51mn
Bit rate                    : 110 bps
Count of elements           : 2657
Stream size                 : 90.5 KiB (0%)
Title                       : Full
Language                    : English
Default                     : No
Forced                      : No

Text #2
ID                          : 5
Format                      : UTF-8
Codec ID                    : S_TEXT/UTF8
Codec ID/Info               : UTF-8 Plain Text
Duration                    : 1h 51mn
Bit rate                    : 118 bps
Count of elements           : 2782
Stream size                 : 96.4 KiB (0%)
Title                       : SDH
Language                    : English
Default                     : No
Forced                      : No

Menu
00:00:00.000                : en:00:00:00.000
00:10:32.924                : en:00:10:32.924
00:20:28.727                : en:00:20:28.727
00:27:50.627                : en:00:27:50.627
00:38:26.095                : en:00:38:26.095
00:51:16.699                : en:00:51:16.699
01:00:35.715                : en:01:00:35.715
01:09:44.222                : en:01:09:44.222
01:23:24.625                : en:01:23:24.625
01:31:27.774                : en:01:31:27.774
01:37:33.973                : en:01:37:33.973
01:46:39.351                : en:01:46:39.351
http://s13.radikal.ru/i186/1607/86/607c9c85bed9.jpg http://s020.radikal.ru/i704/1607/e5/d52a2eb1c7a9.jpg
http://s019.radikal.ru/i629/1607/99/f35585352905.jpg http://i056.radikal.ru/1607/98/df29607e303d.jpg
http://s001.radikal.ru/i193/1607/72/19b9fba9b657.jpg http://s010.radikal.ru/i311/1607/71/c20f01899e2d.jpg
Похожих раздач нет


Привет, гость
- Запомнить
Регистрация
Информация

Торрент трекер ExKinoRay.TV

Здесь вы можете скачать новые фильмы, сериалы, игры, музыку, софт и многое другое. Большая скорость скачивания на мультитрекерных раздачах. Всё абсолютно бесплатно.