Братья из Гримсби | Grimsby | 2016 | BDRip (1080p) | Dub (Лицензия), AVO (Котов) - ExKinoRay Одобрено администрацией

Участники
  • Раздают26
  • Качают0
  • Просмотров180
  • Скачали1
  • Комментариев0
  • Список файлов1
Залил раздачу
Поблагодарить
Характеристики
Вес9.23 GB (9,909,148,695)
Залит2016-07-23 13:06:40 Обновлено2016-07-23 19:49:59
Сетевая Да
   http://s015.radikal.ru/i332/1604/ed/2f3358c0cd05.gif  http://s019.radikal.ru/i635/1604/71/1631672318a1.gif
Чтобы скачать, необходимо авторизоваться или зарегистрироваться.
Статус: Одобрено администрацией
Хотите видеть детали Раздачи пройдите авторизацию или регистрацию!

Спасибо за понимание...
Просьба отключить блокировщики рекламы на странице скриншотов по адресу: http://3.lostpic.net/, этим Вы поможете существованию проекта. Заранее спасибо!
General
Unique ID                   : 177189227442493495882228114433083002418 (0x854D6765B0EF82DDA74D1B5ED2F54E32)
Complete name               : G:\Video\The.Brothers.Grimsby.2016.D.BDRip.1080p.ExKinoRay.mkv
Format                      : Matroska
Format version              : Version 4 / Version 2
File size                   : 9.23 GiB
Duration                    : 1h 23mn
Overall bit rate            : 15.9 Mbps
Movie name                  : The.Brothers.Grimsby.2016.BDRip.1080p.ExKinoRay
Encoded date                : UTC 2016-07-23 09:37:32
Writing application         : mkvmerge v8.3.0 ('Over the Horizon') 64bit
Writing library             : libebml v1.3.1 + libmatroska v1.4.2

Video
ID                          : 1
Format                      : AVC
Format/Info                 : Advanced Video Codec
Format profile              : High@L4.1
Format settings, CABAC      : Yes
Format settings, ReFrames   : 5 frames
Codec ID                    : V_MPEG4/ISO/AVC
Duration                    : 1h 23mn
Bit rate                    : 11.6 Mbps
Width                       : 1 920 pixels
Height                      : 802 pixels
Display aspect ratio        : 2.40:1
Frame rate mode             : Constant
Frame rate                  : 23.976 (24000/1001) fps
Color space                 : YUV
Chroma subsampling          : 4:2:0
Bit depth                   : 8 bits
Scan type                   : Progressive
Bits/(Pixel*Frame)          : 0.314
Stream size                 : 6.73 GiB (73%)
Writing library             : x264 core 148 r2665+53 6629127 t_mod_Custom [8-bit@all X86_64]
Encoding settings           : cabac=1 / ref=5 / deblock=1:-3:-3 / analyse=0x3:0x133 / me=umh / subme=11 / psy=1 / fade_compensate=0.00 / psy_rd=1.05:0.00 / mixed_ref=1 / me_range=32 / chroma_me=1 / trellis=2 / 8x8dct=1 / cqm=0 / deadzone=21,11 / fast_pskip=0 / chroma_qp_offset=-2 / threads=16 / lookahead_threads=2 / sliced_threads=0 / nr=0 / decimate=0 / interlaced=0 / bluray_compat=0 / constrained_intra=0 / fgo=0 / bframes=8 / b_pyramid=2 / b_adapt=2 / b_bias=0 / direct=3 / weightb=1 / open_gop=0 / weightp=2 / keyint=250 / keyint_min=23 / scenecut=40 / intra_refresh=0 / rc_lookahead=150 / rc=crf / mbtree=0 / crf=17.5000 / qcomp=0.60 / qpmin=0:0:0 / qpmax=69:69:69 / qpstep=4 / vbv_maxrate=50000 / vbv_bufsize=62500 / crf_max=0.0 / nal_hrd=none / filler=0 / ip_ratio=1.30 / pb_ratio=1.20 / aq=3:0.80 / aq-sensitivity=10.00 / aq-factor=1.00:1.00:1.00 / aq2=0 / aq3=0
Language                    : English
Default                     : Yes
Forced                      : No
Color range                 : Limited
Matrix coefficients         : BT.709

Audio #1
ID                          : 2
Format                      : AC-3
Format/Info                 : Audio Coding 3
Mode extension              : CM (complete main)
Format settings, Endianness : Big
Codec ID                    : A_AC3
Duration                    : 1h 23mn
Bit rate mode               : Constant
Bit rate                    : 640 Kbps
Channel(s)                  : 6 channels
Channel positions           : Front: L C R, Side: L R, LFE
Sampling rate               : 48.0 KHz
Frame rate                  : 31.250 fps (1536 spf)
Compression mode            : Lossy
Stream size                 : 380 MiB (4%)
Title                       : DUB [Blu-Ray CEE]
Language                    : Russian
Default                     : Yes
Forced                      : No

Audio #2
ID                          : 3
Format                      : AC-3
Format/Info                 : Audio Coding 3
Mode extension              : CM (complete main)
Format settings, Endianness : Big
Codec ID                    : A_AC3
Duration                    : 1h 23mn
Bit rate mode               : Constant
Bit rate                    : 640 Kbps
Channel(s)                  : 6 channels
Channel positions           : Front: L C R, Side: L R, LFE
Sampling rate               : 48.0 KHz
Frame rate                  : 31.250 fps (1536 spf)
Compression mode            : Lossy
Stream size                 : 381 MiB (4%)
Title                       : AVO-AC3 [V.Kotov]
Language                    : Russian
Default                     : No
Forced                      : No

Audio #3
ID                          : 4
Format                      : DTS
Format/Info                 : Digital Theater Systems
Mode                        : 16
Format settings, Endianness : Big
Codec ID                    : A_DTS
Duration                    : 1h 23mn
Bit rate mode               : Constant
Bit rate                    : 1 509 Kbps
Channel(s)                  : 6 channels
Channel positions           : Front: L C R, Side: L R, LFE
Sampling rate               : 48.0 KHz
Frame rate                  : 93.750 fps (512 spf)
Bit depth                   : 24 bits
Compression mode            : Lossy
Stream size                 : 898 MiB (10%)
Title                       : AVO-DTS [V.Kotov]
Language                    : Russian
Default                     : No
Forced                      : No

Audio #4
ID                          : 5
Format                      : DTS
Format/Info                 : Digital Theater Systems
Mode                        : 16
Format settings, Endianness : Big
Codec ID                    : A_DTS
Duration                    : 1h 23mn
Bit rate mode               : Constant
Bit rate                    : 1 509 Kbps
Channel(s)                  : 6 channels
Channel positions           : Front: L C R, Side: L R, LFE
Sampling rate               : 48.0 KHz
Frame rate                  : 93.750 fps (512 spf)
Bit depth                   : 24 bits
Compression mode            : Lossy
Stream size                 : 898 MiB (10%)
Title                       : ORIGINAL
Language                    : English
Default                     : No
Forced                      : No

Text #1
ID                          : 6
Format                      : UTF-8
Codec ID                    : S_TEXT/UTF8
Codec ID/Info               : UTF-8 Plain Text
Duration                    : 1h 14mn
Bit rate                    : 2 bps
Count of elements           : 28
Stream size                 : 1.48 KiB (0%)
Title                       : FORCED
Language                    : Russian
Default                     : Yes
Forced                      : No

Text #2
ID                          : 7
Format                      : UTF-8
Codec ID                    : S_TEXT/UTF8
Codec ID/Info               : UTF-8 Plain Text
Duration                    : 1h 21mn
Bit rate                    : 101 bps
Count of elements           : 1128
Stream size                 : 60.8 KiB (0%)
Title                       : FULL
Language                    : Russian
Default                     : No
Forced                      : No

Text #3
ID                          : 8
Format                      : UTF-8
Codec ID                    : S_TEXT/UTF8
Codec ID/Info               : UTF-8 Plain Text
Duration                    : 1h 21mn
Bit rate                    : 58 bps
Count of elements           : 1063
Stream size                 : 34.8 KiB (0%)
Title                       : FULL
Language                    : English
Default                     : No
Forced                      : No

Text #4
ID                          : 9
Format                      : UTF-8
Codec ID                    : S_TEXT/UTF8
Codec ID/Info               : UTF-8 Plain Text
Duration                    : 1h 22mn
Bit rate                    : 69 bps
Count of elements           : 1383
Stream size                 : 42.1 KiB (0%)
Title                       : SDH
Language                    : English
Default                     : No
Forced                      : No

Menu
00:00:00.000                : en:Chapter 01
00:06:54.331                : en:Chapter 02
00:11:00.994                : en:Chapter 03
00:16:25.735                : en:Chapter 04
00:21:37.630                : en:Chapter 05
00:26:43.727                : en:Chapter 06
00:31:46.863                : en:Chapter 07
00:36:48.706                : en:Chapter 08
00:41:57.056                : en:Chapter 09
00:46:54.979                : en:Chapter 10
00:52:19.595                : en:Chapter 11
00:57:28.487                : en:Chapter 12
01:01:27.851                : en:Chapter 13
01:06:16.139                : en:Chapter 14
01:11:52.099                : en:Chapter 15
01:16:25.873                : en:Chapter 16
http://lostpix.com/thumbs/2016-06/02/1tj3izvxj092rn4sw1ga2sc8l.jpg http://lostpix.com/thumbs/2016-06/02/4crckiwua5jvrsvqkd4dvq53w.jpg http://lostpix.com/thumbs/2016-06/02/5ue8rq2t85gqogky3hojrcvdt.jpg http://lostpix.com/thumbs/2016-06/02/p6fjpkh719qy3k5iyatn4muhv.jpg http://lostpix.com/thumbs/2016-06/02/byxw3gcxmdwtamrqbk16tp7c3.jpg http://lostpix.com/thumbs/2016-06/02/1on8apwybo5echqf40fgrwi2m.jpg


Привет, гость
- Запомнить
Регистрация
Информация

Торрент трекер ExKinoRay.TV

Здесь вы можете скачать новые фильмы, сериалы, игры, музыку, софт и многое другое. Большая скорость скачивания на мультитрекерных раздачах. Всё абсолютно бесплатно.