Иван да Марья | 1974 | SATRip - Лумина Одобрено администрацией
Участники
  • Раздают1
  • Качают0
  • Просмотров90
  • Скачали0
  • Комментариев0
  • Список файлов1
Залил раздачу
Поблагодарить
Характеристики
Вес1.09 GB (1,175,171,072)
Залит2017-02-25 20:35:46 Обновлено0000-00-00 00:00:00
Сетевая Нет
  http://s018.radikal.ru/i507/1605/a4/ac035f69f65b.gif
Для того что бы скачать торрент, Вам необходимо авторизоваться или зарегистрироваться в системе.
Статус: Одобрено администрацией
Хотите видеть детали Раздачи пройдите авторизацию или регистрацию!

Спасибо за понимание...
General
Полное имя                               : C:\Documents and Settings\Администратор\Рабочий стол\Новая папка\Ivan.da.Maria.1974.XviD.SATRip-Лумина.avi
Формат                                   : AVI
Формат/Информация                        : Audio Video Interleave
Размер файла                             : 1.09 GiB
Продолжительность                        : 1h 22mn
Режим общего битрейта                    : Variable
Общий поток                              : 1 894 Kbps
Программа кодирования                    : VirtualDubMod 1.5.10.3 | www.virtualdub-fr.org || (build 2550/release)
Библиотека кодирования                   : VirtualDubMod build 2550/release

Video
Идентификатор                            : 0
Формат                                   : MPEG-4 Visual
Профиль формата                          : Advanced Simple@L5
Параметр BVOP формата                    : 2
Параметр QPel формата                    : No
Параметр GMC формата                     : No warppoints
Параметр матрицы формата                 : Custom
Идентификатор кодека                     : XVID
Идентификатор кодека/Подсказка           : XviD
Продолжительность                        : 1h 22mn
Битрейт                                  : 1 701 Kbps
Ширина                                   : 704 pixels
Высота                                   : 352 pixels
Соотношение сторон                       : 2.000
Частота кадров                           : 25.000 fps
Цветовое пространство                    : YUV
Субдискретизация насыщенности            : 4:2:0
Битовая глубина                          : 8 bits
Тип развёртки                            : Progressive
Метод сжатия                             : Lossy
Бит/(Пиксели*Кадры)                      : 0.275
Размер потока                            : 1 007 MiB (90%)
Библиотека кодирования                   : XviD 64

Audio
Идентификатор                            : 1
Формат                                   : MPEG Audio
Версия формата                           : Version 1
Профиль формата                          : Layer 3
Режим                                    : Joint stereo
Расширение режима                        : MS Stereo
Идентификатор кодека                     : 55
Идентификатор кодека/Подсказка           : MP3
Продолжительность                        : 1h 22mn
Вид битрейта                             : Variable
Битрейт                                  : 180 Kbps
Номинальный битрейт                      : 192 Kbps
Каналы                                   : 2 channels
Частота                                  : 48.0 KHz
Метод сжатия                             : Lossy
Размер потока                            : 106 MiB (9%)
Выравнивание                             : Aligned on interleaves
Продолжительность промежутка             : 24 ms (0.60 video frame)
Время предзагрузки промежутка            : 500 ms
Библиотека кодирования                   : LAME3.98r
Настройки программы                      : -m j -V 4 -q 2 -lowpass 18.6 --abr 192
http://s019.radikal.ru/i618/1702/e1/67fad31f69fet.jpg http://s019.radikal.ru/i619/1702/c2/a5afb7811adct.jpg
http://s018.radikal.ru/i508/1702/25/2a0a12637e3bt.jpg http://i023.radikal.ru/1702/d0/f03996844cc9t.jpg
http://i042.radikal.ru/1702/57/763a9070ec23t.jpg http://s020.radikal.ru/i721/1702/84/2522caf6ae7ct.jpg
Похожих раздач нет


Привет, гость
Информация

Торрент трекер ExKinoRay.TV

Здесь вы можете скачать через торрент новые фильмы, скачать новое кино, сериалы, игры, музыку, софт и многое другое. Большая скорость скачивания на мультитрекерных раздачах. Всё абсолютно бесплатно.