Авраам Руссо - выступление в казино Makao. Live | 2015 | WEBRip - Лумина Одобрено администрацией

Участники
  • Раздают0
  • Качают0
  • Просмотров225
  • Скачали0
  • Комментариев0
  • Список файлов1
Залил раздачу
Поблагодарить
Характеристики
Вес792.79 MB (831,295,488)
Залит2017-03-03 21:28:41 Обновлено2017-03-03 21:29:07
Сетевая Нет
  http://s018.radikal.ru/i507/1605/a4/ac035f69f65b.gif
Чтобы скачать, необходимо авторизоваться или зарегистрироваться.
Статус: Одобрено администрацией
Хотите видеть детали Раздачи пройдите авторизацию или регистрацию!

Спасибо за понимание...
General
Complete name                            : C:\Documents and Settings\Администратор\Рабочий стол\Не пара\Авраам Руссо в казино Макао (полная версия выступления).avi
Format                                   : AVI
Format/Info                              : Audio Video Interleave
File size                                : 793 MiB
Duration                                 : 59mn 48s
Overall bit rate mode                    : Variable
Overall bit rate                         : 1 853 Kbps
Writing application                      : VirtualDubMod 1.5.10.3 | www.virtualdub-fr.org || (build 2550/release)
Writing library                          : VirtualDubMod build 2550/release

Video
ID                                       : 0
Format                                   : MPEG-4 Visual
Format profile                           : Advanced Simple@L5
Format settings, BVOP                    : 2
Format settings, QPel                    : No
Format settings, GMC                     : No warppoints
Format settings, Matrix                  : Custom
Codec ID                                 : XVID
Codec ID/Hint                            : XviD
Duration                                 : 59mn 48s
Bit rate                                 : 1 750 Kbps
Width                                    : 704 pixels
Height                                   : 400 pixels
Display aspect ratio                     : 16:9
Frame rate                               : 25.000 fps
Color space                              : YUV
Chroma subsampling                       : 4:2:0
Bit depth                                : 8 bits
Scan type                                : Progressive
Compression mode                         : Lossy
Bits/(Pixel*Frame)                       : 0.249
Stream size                              : 748 MiB (94%)
Writing library                          : XviD 64

Audio
ID                                       : 1
Format                                   : MPEG Audio
Format version                           : Version 1
Format profile                           : Layer 3
Mode                                     : Joint stereo
Mode extension                           : MS Stereo
Codec ID                                 : 55
Codec ID/Hint                            : MP3
Duration                                 : 59mn 48s
Bit rate mode                            : Variable
Bit rate                                 : 91.1 Kbps
Minimum bit rate                         : 32.0 Kbps
Channel(s)                               : 2 channels
Sampling rate                            : 44.1 KHz
Compression mode                         : Lossy
Stream size                              : 39.0 MiB (5%)
Alignment                                : Aligned on interleaves
Interleave, duration                     : 26 ms (0.65 video frame)
Interleave, preload duration             : 210 ms
Writing library                          : LAME3.98r
Encoding settings                        : -m j -V 4 -q 0 -lowpass 17.5 --vbr-new -b 32
http://s020.radikal.ru/i723/1703/f2/a0f464553c76t.jpg http://i075.radikal.ru/1703/18/d37275c87f86t.jpg
http://s010.radikal.ru/i312/1703/4a/a00782b93aa0t.jpg http://s020.radikal.ru/i722/1703/88/a8b0c31b6fe4t.jpg
http://s010.radikal.ru/i313/1703/71/f3f3a8670f6bt.jpg http://s41.radikal.ru/i091/1703/82/997b238d59a2t.jpg
01. Потерянный рай
02. Далеко далёко
03. Обручальная
04. Подходи-бери
05. Нe моя
06. Живите сказочно
07. Касабланка
08. Боже мой
09. Шоколадка-Чикита
10. Как Быть
11. На твоей волне
12. Меня не гони
13. Опа-опа
14. Знаю
15. Я не отдам тебя никому


Привет, гость
- Запомнить
Регистрация
Информация

Торрент трекер ExKinoRay.TV

Здесь вы можете скачать новые фильмы, сериалы, игры, музыку, софт и многое другое. Большая скорость скачивания на мультитрекерных раздачах. Всё абсолютно бесплатно.