Михаил Шуфутинский -  выступление в казино Makao. Live | 2016 | WEBRip - Лумина Одобрено администрацией

Участники
  • Раздают1
  • Качают0
  • Просмотров222
  • Скачали1
  • Комментариев0
  • Список файлов1
Залил раздачу
Поблагодарить
Характеристики
Вес817.92 MB (857,653,248)
Залит2017-03-04 16:48:36 Обновлено2017-03-04 16:49:05
Сетевая Нет
  http://s018.radikal.ru/i507/1605/a4/ac035f69f65b.gif
Чтобы скачать, необходимо авторизоваться или зарегистрироваться.
Статус: Одобрено администрацией
Хотите видеть детали Раздачи пройдите авторизацию или регистрацию!

Спасибо за понимание...
General
Complete name                            : C:\Documents and Settings\Администратор\Рабочий стол\Не пара\Михаил Шуфутинский в казино Макао.avi
Format                                   : AVI
Format/Info                              : Audio Video Interleave
File size                                : 818 MiB
Duration                                 : 1h 13mn
Overall bit rate mode                    : Variable
Overall bit rate                         : 1 547 Kbps
Writing application                      : VirtualDubMod 1.5.10.3 | www.virtualdub-fr.org || (build 2550/release)
Writing library                          : VirtualDubMod build 2550/release

Video
ID                                       : 0
Format                                   : MPEG-4 Visual
Format profile                           : Advanced Simple@L5
Format settings, BVOP                    : 2
Format settings, QPel                    : No
Format settings, GMC                     : No warppoints
Format settings, Matrix                  : Custom
Codec ID                                 : XVID
Codec ID/Hint                            : XviD
Duration                                 : 1h 13mn
Bit rate                                 : 1 420 Kbps
Width                                    : 704 pixels
Height                                   : 400 pixels
Display aspect ratio                     : 16:9
Frame rate                               : 25.000 fps
Color space                              : YUV
Chroma subsampling                       : 4:2:0
Bit depth                                : 8 bits
Scan type                                : Progressive
Compression mode                         : Lossy
Bits/(Pixel*Frame)                       : 0.202
Stream size                              : 750 MiB (92%)
Writing library                          : XviD 64

Audio
ID                                       : 1
Format                                   : MPEG Audio
Format version                           : Version 1
Format profile                           : Layer 3
Mode                                     : Joint stereo
Mode extension                           : MS Stereo
Codec ID                                 : 55
Codec ID/Hint                            : MP3
Duration                                 : 1h 13mn
Bit rate mode                            : Variable
Bit rate                                 : 115 Kbps
Minimum bit rate                         : 32.0 Kbps
Channel(s)                               : 2 channels
Sampling rate                            : 44.1 KHz
Compression mode                         : Lossy
Stream size                              : 60.8 MiB (7%)
Alignment                                : Aligned on interleaves
Interleave, duration                     : 26 ms (0.65 video frame)
Interleave, preload duration             : 515 ms
Writing library                          : LAME3.98r
Encoding settings                        : -m j -V 4 -q 0 -lowpass 17.5 --vbr-new -b 32
http://s014.radikal.ru/i327/1703/f5/399dbef739c8t.jpg http://s020.radikal.ru/i719/1703/f2/63f33dd4c300t.jpg
http://s020.radikal.ru/i704/1703/83/a63634c6f07bt.jpg http://s019.radikal.ru/i644/1703/5a/f55de542a87ft.jpg
http://s45.radikal.ru/i108/1703/4d/fb10b81c7ad4t.jpg http://s018.radikal.ru/i528/1703/45/9a4ee79b3bc9t.jpg
01. Заходите к нам на огонек
02. Две погасшие свечи
03. Наколочка
04. Еврейский портной
05. Левый берег Дона
06. Ножи
07. Сингарелла
08. Вязаный жакет
09. Хозяин - барин
10. Скрипач Моня
11. Бутылка вина
12. Обожаю
13. А душа ее ждет
14. Третье сентября
15. Марджанджа


Привет, гость
- Запомнить
Регистрация
Информация

Торрент трекер ExKinoRay.TV

Здесь вы можете скачать новые фильмы, сериалы, игры, музыку, софт и многое другое. Большая скорость скачивания на мультитрекерных раздачах. Всё абсолютно бесплатно.