Битлз против Роллинг Стоунз | The Beatles vs The Rolling Stones | 2015 | HDTVRip (AVC) | DVO - 0ptimus Одобрено администрацией

Участники
  • Раздают1
  • Качают0
  • Просмотров184
  • Скачали3
  • Комментариев0
  • Список файлов1
Залил раздачу
Поблагодарить
Никто
Характеристики
Вес749.15 MB (785,543,060)
Залит2017-03-25 13:24:23 Обновлено2017-03-25 13:56:24
Сетевая Нет
  http://www.imageup.ru/img286/1291032/0ptimus.gif
Чтобы скачать, необходимо авторизоваться или зарегистрироваться.
Статус: Одобрено администрацией
Хотите видеть детали Раздачи пройдите авторизацию или регистрацию!

Спасибо за понимание...
General
Unique ID                   : 219053965744844343547576753058677219754 (0xA4CC425B5B0E49089C9D500C209F61AA)
Complete name               : C:\Users\User\Desktop\Новая папка\The Beatles vs the Rolling Stones_HD.mkv
Format                      : Matroska
Format version              : Version 2
File size                   : 749 MiB
Duration                    : 52 min 36 s
Overall bit rate            : 1 991 kb/s
Encoded date                : UTC 2017-03-25 03:19:19
Writing application         : mkvmerge v5.6.0 ('Kenya Kane') built on Jun 29 2012 15:01:44
Writing library             : libebml v1.2.3 + libmatroska v1.3.0

Video
ID                          : 1
Format                      : AVC
Format/Info                 : Advanced Video Codec
Format profile              : High@L4.1
Format settings, CABAC      : Yes
Format settings, ReFrames   : 9 frames
Codec ID                    : V_MPEG4/ISO/AVC
Duration                    : 52 min 36 s
Bit rate                    : 1 798 kb/s
Width                       : 1 024 pixels
Height                      : 576 pixels
Display aspect ratio        : 16:9
Frame rate mode             : Constant
Frame rate                  : 25.000 FPS
Color space                 : YUV
Chroma subsampling          : 4:2:0
Bit depth                   : 8 bits
Scan type                   : Progressive
Bits/(Pixel*Frame)          : 0.122
Stream size                 : 662 MiB (88%)
Writing library             : x264 core 125 r2200 999b753
Encoding settings           : cabac=1 / ref=9 / deblock=1:-3:-3 / analyse=0x3:0x113 / me=umh / subme=11 / psy=1 / psy_rd=1.00:0.20 / mixed_ref=1 / me_range=32 / chroma_me=1 / trellis=2 / 8x8dct=1 / cqm=0 / deadzone=21,11 / fast_pskip=0 / chroma_qp_offset=-3 / threads=12 / lookahead_threads=2 / sliced_threads=0 / nr=0 / decimate=0 / interlaced=0 / bluray_compat=0 / constrained_intra=0 / bframes=12 / b_pyramid=2 / b_adapt=2 / b_bias=0 / direct=3 / weightb=1 / open_gop=0 / weightp=2 / keyint=250 / keyint_min=25 / scenecut=40 / intra_refresh=0 / rc_lookahead=40 / rc=2pass / mbtree=0 / bitrate=1798 / ratetol=1.0 / qcomp=0.60 / qpmin=0 / qpmax=69 / qpstep=4 / cplxblur=20.0 / qblur=0.5 / vbv_maxrate=50000 / vbv_bufsize=50000 / nal_hrd=none / ip_ratio=1.40 / pb_ratio=1.30 / aq=1:1.00
Default                     : Yes
Forced                      : No

Audio
ID                          : 2
Format                      : AC-3
Format/Info                 : Audio Coding 3
Mode extension              : CM (complete main)
Format settings, Endianness : Big
Codec ID                    : A_AC3
Duration                    : 52 min 36 s
Bit rate mode               : Constant
Bit rate                    : 192 kb/s
Channel(s)                  : 2 channels
Channel positions           : Front: L R
Sampling rate               : 48.0 kHz
Frame rate                  : 31.250 FPS (1536 spf)
Bit depth                   : 16 bits
Compression mode            : Lossy
Stream size                 : 72.2 MiB (10%)
Default                     : Yes
Forced                      : No

http://s02.radikal.ru/i175/1703/50/4839ef78f1e3t.jpg http://s019.radikal.ru/i635/1703/38/a0c390248ff8t.jpg
http://s020.radikal.ru/i712/1703/6a/06a9137fbbcat.jpg http://s12.radikal.ru/i185/1703/0b/265cf70ff5d5t.jpg
http://s019.radikal.ru/i615/1703/57/2a166e3b26e4t.jpg http://s020.radikal.ru/i703/1703/47/9c101253984et.jpg


Привет, гость
- Запомнить
Регистрация
Информация

Торрент трекер ExKinoRay.TV

Здесь вы можете скачать новые фильмы, сериалы, игры, музыку, софт и многое другое. Большая скорость скачивания на мультитрекерных раздачах. Всё абсолютно бесплатно.