Chris Norman & Smokie - The Video Hits Collection | 2016 | WEBRip - Лумина Одобрено администрацией

Участники
  • Раздают2
  • Качают0
  • Просмотров204
  • Скачали6
  • Комментариев0
  • Список файлов1
Залил раздачу
Поблагодарить
Характеристики
Вес805.62 MB (844,758,788)
Залит2017-03-26 17:22:36 Обновлено2017-03-26 17:23:04
Сетевая Нет
  http://s018.radikal.ru/i507/1605/a4/ac035f69f65b.gif
Чтобы скачать, необходимо авторизоваться или зарегистрироваться.
Статус: Одобрено администрацией
Хотите видеть детали Раздачи пройдите авторизацию или регистрацию!

Спасибо за понимание...
General
Complete name               : C:\Users\User\Desktop\Retro3\Chris.Norman.and.Smokie-The.Video.Hits.Collection.2016.XviD.WEBRip-Луминаavi.avi
Format                      : AVI
Format/Info                 : Audio Video Interleave
File size                   : 806 MiB
Duration                    : 1 h 0 min
Overall bit rate            : 1 861 kb/s
Writing application         : VirtualDubMod 1.5.10.3 | www.virtualdub-fr.org || (build 2550/release)
Writing library             : VirtualDub build 35491/release

Video
ID                          : 0
Format                      : MPEG-4 Visual
Format profile              : Advanced Simple@L5
Format settings, BVOP       : 2
Format settings, QPel       : No
Format settings, GMC        : No warppoints
Format settings, Matrix     : Custom
Codec ID                    : XVID
Codec ID/Hint               : XviD
Duration                    : 1 h 0 min
Bit rate                    : 1 724 kb/s
Width                       : 704 pixels
Height                      : 400 pixels
Display aspect ratio        : 16:9
Frame rate                  : 23.976 (24000/1001) FPS
Original frame rate         : 23.976 (23976/1000) FPS
Color space                 : YUV
Chroma subsampling          : 4:2:0
Bit depth                   : 8 bits
Scan type                   : Progressive
Compression mode            : Lossy
Bits/(Pixel*Frame)          : 0.255
Stream size                 : 746 MiB (93%)
Writing library             : XviD 65

Audio
ID                          : 1
Format                      : MPEG Audio
Format version              : Version 1
Format profile              : Layer 3
Mode                        : Joint stereo
Mode extension              : MS Stereo
Codec ID                    : 55
Codec ID/Hint               : MP3
Duration                    : 1 h 0 min
Bit rate mode               : Constant
Bit rate                    : 128 kb/s
Channel(s)                  : 2 channels
Sampling rate               : 44.1 kHz
Compression mode            : Lossy
Stream size                 : 55.4 MiB (7%)
Alignment                   : Split accross interleaves
Interleave, duration        : 42  ms (1.00 video frame)
Interleave, preload duratio : 500  ms
Writing library             : LAME3.99.5ЄЄЄЄЄЄЄЄЄЄ

http://s020.radikal.ru/i712/1703/e8/c74f2687db27t.jpg http://s45.radikal.ru/i110/1703/9c/67358fe3a33dt.jpg
http://s019.radikal.ru/i605/1703/5d/9761b8b83279t.jpg http://s019.radikal.ru/i623/1703/d6/34ae2e07f78bt.jpg
http://s020.radikal.ru/i717/1703/3a/5df50a7b1c8at.jpg http://s03.radikal.ru/i176/1703/93/a22d5094667ft.jpg
01. Needles & Pins
02. Don' t Play Your Rock' n' Roll To Me
03. Run To Me
04. Something' s Been Making Me Blue
05. If You Think You Know How To Love Me
06. What Can I Do
07. It' s Your Life
08. Living Next Door To Alice
09. Mexican Girl
10. Oh Carol
11. Needles & Pins
12. Stumblin' In ( feat Suzi Quatro )
13. Broken Heroes
14. Midnight Lady
15. No Arms Can Ever Hold You
16. I Need Your Love ( feat Suzi Quatro )
17. If You Need My Love Tonight
18. Baby I Miss You
19. Be My Baby


Привет, гость
- Запомнить
Регистрация
Информация

Торрент трекер ExKinoRay.TV

Здесь вы можете скачать новые фильмы, сериалы, игры, музыку, софт и многое другое. Большая скорость скачивания на мультитрекерных раздачах. Всё абсолютно бесплатно.