Роллинг Стоунз - В изгнании | The Rolling Stones - Stones In Exile | 2010 | DVDRip | MVO - Лумина Одобрено администрацией

Участники
  • Раздают0
  • Качают0
  • Просмотров185
  • Скачали1
  • Комментариев0
  • Список файлов1
Залил раздачу
Поблагодарить
Характеристики
Вес701.17 MB (735,234,048)
Залит2017-03-29 11:13:35 Обновлено2017-03-29 11:15:48
Сетевая Нет
  http://s018.radikal.ru/i507/1605/a4/ac035f69f65b.gif
Чтобы скачать, необходимо авторизоваться или зарегистрироваться.
Статус: Одобрено администрацией
Хотите видеть детали Раздачи пройдите авторизацию или регистрацию!

Спасибо за понимание...
General
Complete name               : C:\Users\User\Desktop\The Rolling Stones - Stones In Exile\The.Rolling.Stones-Stones.In.Exile.2010.XviD.DVDRip-Лумина.avi
Format                      : AVI
Format/Info                 : Audio Video Interleave
File size                   : 701 MiB
Duration                    : 1 h 0 min
Overall bit rate            : 1 616 kb/s
Writing application         : VirtualDubMod 1.5.10.3 | www.virtualdub-fr.org || (build 2550/release)
Writing library             : VirtualDubMod build 2550/release

Video
ID                          : 0
Format                      : MPEG-4 Visual
Format profile              : Advanced Simple@L5
Format settings, BVOP       : 2
Format settings, QPel       : No
Format settings, GMC        : No warppoints
Format settings, Matrix     : Custom
Codec ID                    : XVID
Codec ID/Hint               : XviD
Duration                    : 1 h 0 min
Bit rate                    : 1 415 kb/s
Width                       : 704 pixels
Height                      : 384 pixels
Display aspect ratio        : 1.85:1
Frame rate                  : 23.976 (24000/1001) FPS
Color space                 : YUV
Chroma subsampling          : 4:2:0
Bit depth                   : 8 bits
Scan type                   : Progressive
Compression mode            : Lossy
Bits/(Pixel*Frame)          : 0.218
Stream size                 : 614 MiB (88%)
Writing library             : XviD 65

Audio
ID                          : 1
Format                      : AC-3
Format/Info                 : Audio Coding 3
Mode extension              : CM (complete main)
Format settings, Endianness : Big
Codec ID                    : 2000
Duration                    : 1 h 0 min
Bit rate mode               : Constant
Bit rate                    : 192 kb/s
Channel(s)                  : 2 channels
Channel positions           : Front: L R
Sampling rate               : 48.0 kHz
Frame rate                  : 31.250 FPS (1536 spf)
Bit depth                   : 16 bits
Compression mode            : Lossy
Stream size                 : 83.3 MiB (12%)
Alignment                   : Split accross interleaves
Interleave, duration        : 42  ms (1.00 video frame)
Interleave, preload duratio : 500  ms

http://s019.radikal.ru/i633/1703/f3/0a735ca725edt.jpg http://s016.radikal.ru/i334/1703/aa/b541a1963bdat.jpg
http://s011.radikal.ru/i318/1703/2d/af9c7a659359t.jpg http://s020.radikal.ru/i702/1703/36/b22ae520159et.jpg
http://s019.radikal.ru/i604/1703/d7/87890d0a8ceat.jpg http://s001.radikal.ru/i193/1703/dc/b168660e6eadt.jpg
01. Sign Of The Times
02. Stones Roll Out
03. Riviera
04. The Tribe
05. Keith's Basement Jam
06. Roots
07. Late And Loud
08. La Dolce Vita
09. Sunset Sounds
10. Stones Roll In
11. How Good Does It Get?


Привет, гость
- Запомнить
Регистрация
Информация

Торрент трекер ExKinoRay.TV

Здесь вы можете скачать новые фильмы, сериалы, игры, музыку, софт и многое другое. Большая скорость скачивания на мультитрекерных раздачах. Всё абсолютно бесплатно.