Scorpions - Farewell Tour. Live Saarbrucken | 2011 | WEB-DLRip - Лумина Одобрено администрацией

Участники
  • Раздают0
  • Качают0
  • Просмотров269
  • Скачали1
  • Комментариев0
  • Список файлов1
Залил раздачу
Поблагодарить
Характеристики
Вес1.45 GB (1,559,615,488)
Залит2017-04-02 12:54:16 Обновлено2017-04-02 12:54:40
Сетевая Нет
  http://s018.radikal.ru/i507/1605/a4/ac035f69f65b.gif
Чтобы скачать, необходимо авторизоваться или зарегистрироваться.
Статус: Одобрено администрацией
Хотите видеть детали Раздачи пройдите авторизацию или регистрацию!

Спасибо за понимание...
General
Complete name               : C:\Users\User\Desktop\Scorpions\Scorpions-Farewell.Tour.Live.Saarbrucken.2011.XviD.WEBDL-Rip-Лумина.avi
Format                      : AVI
Format/Info                 : Audio Video Interleave
File size                   : 1.45 GiB
Duration                    : 1 h 53 min
Overall bit rate            : 1 824 kb/s
Writing application         : VirtualDubMod 1.5.10.3 | www.virtualdub-fr.org || (build 2550/release)
Writing library             : VirtualDubMod build 2550/release

Video
ID                          : 0
Format                      : MPEG-4 Visual
Format profile              : Advanced Simple@L5
Format settings, BVOP       : 2
Format settings, QPel       : No
Format settings, GMC        : No warppoints
Format settings, Matrix     : Custom
Codec ID                    : XVID
Codec ID/Hint               : XviD
Duration                    : 1 h 53 min
Bit rate                    : 1 559 kb/s
Width                       : 704 pixels
Height                      : 400 pixels
Display aspect ratio        : 16:9
Frame rate                  : 23.976 (24000/1001) FPS
Original frame rate         : 23.976 (23976/1000) FPS
Color space                 : YUV
Chroma subsampling          : 4:2:0
Bit depth                   : 8 bits
Scan type                   : Progressive
Compression mode            : Lossy
Bits/(Pixel*Frame)          : 0.231
Stream size                 : 1.24 GiB (85%)
Writing library             : XviD 65

Audio
ID                          : 1
Format                      : AC-3
Format/Info                 : Audio Coding 3
Mode extension              : CM (complete main)
Format settings, Endianness : Big
Codec ID                    : 2000
Duration                    : 1 h 53 min
Bit rate mode               : Constant
Bit rate                    : 256 kb/s
Channel(s)                  : 2 channels
Channel positions           : Front: L R
Sampling rate               : 48.0 kHz
Frame rate                  : 31.250 FPS (1536 spf)
Bit depth                   : 16 bits
Compression mode            : Lossy
Stream size                 : 209 MiB (14%)
Alignment                   : Split accross interleaves
Interleave, duration        : 42  ms (1.00 video frame)
Interleave, preload duratio : 500  ms

http://s019.radikal.ru/i609/1704/58/36758a9fd4cat.jpg http://s001.radikal.ru/i193/1704/8f/e3e65195a46ct.jpg
http://s019.radikal.ru/i605/1704/00/6fd1e1c38958t.jpg http://s019.radikal.ru/i601/1704/2d/fa3d6d4d0328t.jpg
http://s014.radikal.ru/i329/1704/01/022d094993a7t.jpg http://s011.radikal.ru/i317/1704/7c/aea8d58530e1t.jpg
01. Sting in the Tail
02. Make It Real
03. Bad Boys Running Wild
04. The Zoo
05. Coast to Coast
06. Loving You Sunday Morning
07. The Best Is Yet to Come
08. Send Me an Angel
09. Holiday
10. Raised on Rock
11. Tease Me Please Me
12. Dynamite
13. Kottak Attack
14. Blackout
15. Six String Sting
16. Big City Nights

Encore:
17. Still Loving You
18. Wind of Change
19. Rock You Like a Hurricane
20. When the Smoke Is Going Down


Привет, гость
- Запомнить
Регистрация
Информация

Торрент трекер ExKinoRay.TV

Здесь вы можете скачать новые фильмы, сериалы, игры, музыку, софт и многое другое. Большая скорость скачивания на мультитрекерных раздачах. Всё абсолютно бесплатно.