Gilla - The Video Hits Collection | 2016 | WEBRip - Лумина Одобрено администрацией

Участники
  • Раздают0
  • Качают0
  • Просмотров178
  • Скачали4
  • Комментариев0
  • Список файлов1
Залил раздачу
Поблагодарить
Характеристики
Вес525.58 MB (551,107,208)
Залит2017-04-05 13:44:38 Обновлено2017-04-05 13:45:00
Сетевая Нет
  http://s018.radikal.ru/i507/1605/a4/ac035f69f65b.gif
Чтобы скачать, необходимо авторизоваться или зарегистрироваться.
Статус: Одобрено администрацией
Хотите видеть детали Раздачи пройдите авторизацию или регистрацию!

Спасибо за понимание...
General
Complete name               : C:\Users\User\Desktop\Ретро7\Gilla-The.Video.Hits.Collection.2016.XviD.WEBRip-Лумина.avi
Format                      : AVI
Format/Info                 : Audio Video Interleave
File size                   : 526 MiB
Duration                    : 41 min 2 s
Overall bit rate            : 1 790 kb/s
Writing application         : VirtualDubMod 1.5.10.3 | www.virtualdub-fr.org || (build 2550/release)
Writing library             : VirtualDub build 35491/release

Video
ID                          : 0
Format                      : MPEG-4 Visual
Format profile              : Advanced Simple@L5
Format settings, BVOP       : 2
Format settings, QPel       : No
Format settings, GMC        : No warppoints
Format settings, Matrix     : Custom
Codec ID                    : XVID
Codec ID/Hint               : XviD
Duration                    : 41 min 2 s
Bit rate                    : 1 653 kb/s
Width                       : 704 pixels
Height                      : 400 pixels
Display aspect ratio        : 16:9
Frame rate                  : 23.976 (24000/1001) FPS
Original frame rate         : 23.976 (23976/1000) FPS
Color space                 : YUV
Chroma subsampling          : 4:2:0
Bit depth                   : 8 bits
Scan type                   : Progressive
Compression mode            : Lossy
Bits/(Pixel*Frame)          : 0.245
Stream size                 : 485 MiB (92%)
Writing library             : XviD 65

Audio
ID                          : 1
Format                      : MPEG Audio
Format version              : Version 1
Format profile              : Layer 3
Mode                        : Joint stereo
Mode extension              : MS Stereo
Codec ID                    : 55
Codec ID/Hint               : MP3
Duration                    : 41 min 2 s
Bit rate mode               : Constant
Bit rate                    : 128 kb/s
Channel(s)                  : 2 channels
Sampling rate               : 44.1 kHz
Compression mode            : Lossy
Delay relative to video     : 15 ms
Stream size                 : 37.6 MiB (7%)
Alignment                   : Split accross interleaves
Interleave, duration        : 42  ms (1.00 video frame)
Interleave, preload duratio : 500  ms
Writing library             : LAME3.99.5ЄЄЄЄЄЄЄЄЄЄ

http://s010.radikal.ru/i314/1704/ec/9022c27dcae5t.jpg http://s19.radikal.ru/i192/1704/bf/c3f363b66a3et.jpg
http://s019.radikal.ru/i600/1704/ed/99a17425dd84t.jpg http://s019.radikal.ru/i631/1704/14/965fee306c67t.jpg
http://s019.radikal.ru/i641/1704/a3/392e8e28633et.jpg http://s019.radikal.ru/i616/1704/bc/1d52ec0cc4d7t.jpg
01. Bend Me, Shape Me
02. Help! Help!
03. Gentlemen Callers Not Allowed (feat Bobby Farrell)
04. We Gotta Get Out of This Place
05. Bend Me, Shape Me
06. Johnny (German version)
07. Hold On
08. Why Don' t You Do It
09. Go Down Mainstreet
10. Johnny
11. Tom Cat
Похожие раздачиРазмер
Gilla - The HQ Vinil Collection | Disco | 1975-1980 | MP3449.14 MB


Привет, гость
- Запомнить
Регистрация
Информация

Торрент трекер ExKinoRay.TV

Здесь вы можете скачать новые фильмы, сериалы, игры, музыку, софт и многое другое. Большая скорость скачивания на мультитрекерных раздачах. Всё абсолютно бесплатно.