Scorpions - Acoustica. Live in Lisboa 2001 (TV version) | 2012 | HDTVRip - Лумина Одобрено администрацией

Участники
  • Раздают0
  • Качают0
  • Просмотров252
  • Скачали1
  • Комментариев0
  • Список файлов1
Залил раздачу
Поблагодарить
Никто
Характеристики
Вес700.88 MB (734,930,944)
Залит2017-04-05 15:58:03 Обновлено2017-04-05 15:58:32
Сетевая Нет
  http://s018.radikal.ru/i507/1605/a4/ac035f69f65b.gif
Чтобы скачать, необходимо авторизоваться или зарегистрироваться.
Статус: Одобрено администрацией
Хотите видеть детали Раздачи пройдите авторизацию или регистрацию!

Спасибо за понимание...
General
Complete name               : C:\Users\User\Desktop\Скорпионс\Scorpions-Acoustica(Live.in.Lisboa)2001.XviD.HDTVRip-Лумина.avi
Format                      : AVI
Format/Info                 : Audio Video Interleave
File size                   : 701 MiB
Duration                    : 59 min 6 s
Overall bit rate            : 1 658 kb/s
Writing application         : VirtualDubMod 1.5.10.3 | www.virtualdub-fr.org || (build 2550/release)
Writing library             : VirtualDubMod build 2550/release

Video
ID                          : 0
Format                      : MPEG-4 Visual
Format profile              : Advanced Simple@L5
Format settings, BVOP       : 2
Format settings, QPel       : No
Format settings, GMC        : No warppoints
Format settings, Matrix     : Custom
Codec ID                    : XVID
Codec ID/Hint               : XviD
Duration                    : 59 min 6 s
Bit rate                    : 1 392 kb/s
Width                       : 704 pixels
Height                      : 400 pixels
Display aspect ratio        : 16:9
Frame rate                  : 25.000 FPS
Color space                 : YUV
Chroma subsampling          : 4:2:0
Bit depth                   : 8 bits
Scan type                   : Progressive
Compression mode            : Lossy
Bits/(Pixel*Frame)          : 0.198
Stream size                 : 589 MiB (84%)
Writing library             : XviD 65

Audio
ID                          : 1
Format                      : AC-3
Format/Info                 : Audio Coding 3
Mode extension              : CM (complete main)
Format settings, Endianness : Big
Codec ID                    : 2000
Duration                    : 59 min 5 s
Bit rate mode               : Constant
Bit rate                    : 256 kb/s
Channel(s)                  : 2 channels
Channel positions           : Front: L R
Sampling rate               : 48.0 kHz
Frame rate                  : 31.250 FPS (1536 spf)
Bit depth                   : 16 bits
Compression mode            : Lossy
Stream size                 : 108 MiB (15%)
Alignment                   : Split accross interleaves
Interleave, duration        : 40  ms (1.00 video frame)
Interleave, preload duratio : 500  ms

http://s020.radikal.ru/i700/1704/ce/aca310539873t.jpg http://s019.radikal.ru/i615/1704/38/93dff254a4cct.jpg
http://s008.radikal.ru/i305/1704/89/9a43211714act.jpg http://s020.radikal.ru/i704/1704/25/2ab8017d6f2at.jpg
http://s019.radikal.ru/i628/1704/85/38bde1c53440t.jpg http://s015.radikal.ru/i332/1704/ff/11d2c7ed6cb0t.jpg
01. Loving You Sunday Morning
02. Is There Anybody There
03. Tease Me, Please Me
04. Dust In The Wind
05. Send Me An Angel
06. Under The Same Sun
07. Catch Your Train
08. Hurricane 2001
09. Wind Of Change
10. Love Of My Life
11. Drive
12. Still Loving You


Привет, гость
- Запомнить
Регистрация
Информация

Торрент трекер ExKinoRay.TV

Здесь вы можете скачать новые фильмы, сериалы, игры, музыку, софт и многое другое. Большая скорость скачивания на мультитрекерных раздачах. Всё абсолютно бесплатно.