Scorpions - Acoustica. Live in Lisboa 2001 (TV version) | 2012 | HDTVRip (AVC) - Лумина Одобрено администрацией

Участники
  • Раздают0
  • Качают0
  • Просмотров263
  • Скачали3
  • Комментариев0
  • Список файлов1
Залил раздачу
Поблагодарить
Характеристики
Вес1.39 GB (1,488,062,545)
Залит2017-04-07 17:29:33 Обновлено2017-04-07 17:29:55
Сетевая Нет
  http://s018.radikal.ru/i507/1605/a4/ac035f69f65b.gif
Чтобы скачать, необходимо авторизоваться или зарегистрироваться.
Статус: Одобрено администрацией
Хотите видеть детали Раздачи пройдите авторизацию или регистрацию!

Спасибо за понимание...
General
Unique ID                   : 172543367495818125917383774409477947130 (0x81CEA4D12981008EB83E8CC7DE257EFA)
Complete name               : C:\Users\User\Desktop\Скорпионс\Scorpions-Acoustica(Live.in.Lisboa)2001.x264.HDTVRip-Лумина.mkv
Format                      : Matroska
Format version              : Version 2
File size                   : 1.39 GiB
Duration                    : 59 min 6 s
Overall bit rate            : 3 357 kb/s
Encoded date                : UTC 2017-04-07 12:30:28
Writing application         : mkvmerge v5.6.0 ('Kenya Kane') built on Jun 29 2012 15:01:44
Writing library             : libebml v1.2.3 + libmatroska v1.3.0

Video
ID                          : 1
Format                      : AVC
Format/Info                 : Advanced Video Codec
Format profile              : High@L4.1
Format settings, CABAC      : Yes
Format settings, ReFrames   : 9 frames
Codec ID                    : V_MPEG4/ISO/AVC
Duration                    : 59 min 6 s
Bit rate                    : 3 100 kb/s
Width                       : 1 024 pixels
Height                      : 576 pixels
Display aspect ratio        : 16:9
Frame rate mode             : Constant
Frame rate                  : 25.000 FPS
Color space                 : YUV
Chroma subsampling          : 4:2:0
Bit depth                   : 8 bits
Scan type                   : Progressive
Bits/(Pixel*Frame)          : 0.210
Stream size                 : 1.25 GiB (90%)
Writing library             : x264 core 125 r2200 999b753
Encoding settings           : cabac=1 / ref=9 / deblock=1:-3:-3 / analyse=0x3:0x113 / me=umh / subme=11 / psy=1 / psy_rd=1.00:0.20 / mixed_ref=1 / me_range=32 / chroma_me=1 / trellis=2 / 8x8dct=1 / cqm=0 / deadzone=21,11 / fast_pskip=0 / chroma_qp_offset=-3 / threads=12 / lookahead_threads=2 / sliced_threads=0 / nr=0 / decimate=0 / interlaced=0 / bluray_compat=0 / constrained_intra=0 / bframes=12 / b_pyramid=2 / b_adapt=2 / b_bias=0 / direct=3 / weightb=1 / open_gop=0 / weightp=2 / keyint=250 / keyint_min=25 / scenecut=40 / intra_refresh=0 / rc_lookahead=40 / rc=2pass / mbtree=0 / bitrate=3100 / ratetol=1.0 / qcomp=0.60 / qpmin=0 / qpmax=69 / qpstep=4 / cplxblur=20.0 / qblur=0.5 / vbv_maxrate=50000 / vbv_bufsize=50000 / nal_hrd=none / ip_ratio=1.40 / pb_ratio=1.30 / aq=1:1.00
Default                     : Yes
Forced                      : No

Audio
ID                          : 2
Format                      : AC-3
Format/Info                 : Audio Coding 3
Mode extension              : CM (complete main)
Format settings, Endianness : Big
Codec ID                    : A_AC3
Duration                    : 59 min 6 s
Bit rate mode               : Constant
Bit rate                    : 256 kb/s
Channel(s)                  : 2 channels
Channel positions           : Front: L R
Sampling rate               : 48.0 kHz
Frame rate                  : 31.250 FPS (1536 spf)
Bit depth                   : 16 bits
Compression mode            : Lossy
Stream size                 : 108 MiB (8%)
Default                     : Yes
Forced                      : No

http://s020.radikal.ru/i719/1704/db/c420f70b005ct.jpg http://s020.radikal.ru/i709/1704/77/07ed836a98f5t.jpg
http://s020.radikal.ru/i717/1704/6d/1060c19f78bdt.jpg http://s020.radikal.ru/i719/1704/89/0a5dafe7a7ect.jpg
http://s019.radikal.ru/i606/1704/1c/a85354a5256ct.jpg http://s019.radikal.ru/i605/1704/0c/8594b7eeec55t.jpg
01. Loving You Sunday Morning
02. Is There Anybody There
03. Tease Me, Please Me
04. Dust In The Wind
05. Send Me An Angel
06. Under The Same Sun
07. Catch Your Train
08. Hurricane 2001
09. Wind Of Change
10. Love Of My Life
11. Drive
12. Still Loving You


Привет, гость
- Запомнить
Регистрация
Информация

Торрент трекер ExKinoRay.TV

Здесь вы можете скачать новые фильмы, сериалы, игры, музыку, софт и многое другое. Большая скорость скачивания на мультитрекерных раздачах. Всё абсолютно бесплатно.