Мелодии века - Константин Москович | 2014 | SATRip - Лумина Одобрено администрацией

Участники
  • Раздают0
  • Качают1
  • Просмотров290
  • Скачали1
  • Комментариев0
  • Список файлов1
Залил раздачу
Поблагодарить
Никто
Характеристики
Вес907.10 MB (951,166,976)
Залит2017-04-07 23:29:57 Обновлено2017-04-07 23:39:07
Сетевая Нет
  http://s018.radikal.ru/i507/1605/a4/ac035f69f65b.gif
Чтобы скачать, необходимо авторизоваться или зарегистрироваться.
Статус: Одобрено администрацией
Хотите видеть детали Раздачи пройдите авторизацию или регистрацию!

Спасибо за понимание...
General
Complete name               : C:\Users\User\Desktop\Москович\Melodii.veka-Constantin.Moscovici.2014.XviD.SATRip-Лумина.avi
Format                      : AVI
Format/Info                 : Audio Video Interleave
File size                   : 907 MiB
Duration                    : 55 min 58 s
Overall bit rate            : 2 266 kb/s
Writing application         : VirtualDubMod 1.5.10.3 | www.virtualdub-fr.org || (build 2550/release)
Writing library             : VirtualDubMod build 2550/release

Video
ID                          : 0
Format                      : MPEG-4 Visual
Format profile              : Advanced Simple@L5
Format settings, BVOP       : 2
Format settings, QPel       : No
Format settings, GMC        : No warppoints
Format settings, Matrix     : Custom
Codec ID                    : XVID
Codec ID/Hint               : XviD
Duration                    : 55 min 58 s
Bit rate                    : 2 000 kb/s
Width                       : 704 pixels
Height                      : 384 pixels
Display aspect ratio        : 1.85:1
Frame rate                  : 25.000 FPS
Color space                 : YUV
Chroma subsampling          : 4:2:0
Bit depth                   : 8 bits
Scan type                   : Progressive
Compression mode            : Lossy
Bits/(Pixel*Frame)          : 0.296
Stream size                 : 801 MiB (88%)
Writing library             : XviD 65

Audio
ID                          : 1
Format                      : AC-3
Format/Info                 : Audio Coding 3
Mode extension              : CM (complete main)
Format settings, Endianness : Big
Codec ID                    : 2000
Duration                    : 55 min 58 s
Bit rate mode               : Constant
Bit rate                    : 256 kb/s
Channel(s)                  : 2 channels
Channel positions           : Front: L R
Sampling rate               : 48.0 kHz
Frame rate                  : 31.250 FPS (1536 spf)
Bit depth                   : 16 bits
Compression mode            : Lossy
Stream size                 : 103 MiB (11%)
Alignment                   : Split accross interleaves
Interleave, duration        : 40  ms (1.00 video frame)
Interleave, preload duratio : 500  ms

http://s45.radikal.ru/i109/1704/ae/fa3e9a3ea134t.jpg http://s020.radikal.ru/i710/1704/20/27c354584cc3t.jpg
http://s020.radikal.ru/i707/1704/6d/3a8e5ecfeeeft.jpg http://s019.radikal.ru/i638/1704/ca/e0c25c62826et.jpg
http://s009.radikal.ru/i308/1704/20/80ae8cc46904t.jpg http://s019.radikal.ru/i624/1704/9d/76fa0ba095f4t.jpg
01. Ennio Morricone — Cockey's song (пан-флейта — Константин Москович, вокал — Юлия Шишко)
02. Ennio Morricone — Chi Mai
03. Tomaso Albinoni — Adagio (пан-флейта — Константин Москович)
04. Astor Piazzolla — Libertango
05. Freddie Mercury, Mike Moran — Barcelona (вокал — Пётр Елфимов, Елена Шведова)
06. Andrew Lloyd Webber — Memory (из мюзикла "Cats" (пан-флейта — Константин Москович)
07. Consuelo Velazquez — Besame mucho (скрипка — Анна Миркос)
08. James Last — The Lonely Shepherd (пан-флейта — Константин Москович)
09. Benny Andersson, Bjorn Ulvaeus — The Winner Takes It All (пан-флейта — Константин Москович)
10. Ennio Morricone — Il vento, Il Grido (из к/ф "Профессионал"
11. Поппури на песни Майкла Джексона
12. Николай Римский-Корсаков — "Полёт шмеля" из оперы "Сказка о Царе Солтане"


Привет, гость
- Запомнить
Регистрация
Информация

Торрент трекер ExKinoRay.TV

Здесь вы можете скачать новые фильмы, сериалы, игры, музыку, софт и многое другое. Большая скорость скачивания на мультитрекерных раздачах. Всё абсолютно бесплатно.