Eric Clapton - Live in San Diego 2007 (with Special Guest JJ Cale) | 2016 | BDRip - Лумина Одобрено администрацией

Участники
  • Раздают0
  • Качают0
  • Просмотров274
  • Скачали0
  • Комментариев1
  • Список файлов1
Залил раздачу
Поблагодарить
Характеристики
Вес1.45 GB (1,559,490,560)
Залит2017-04-08 17:48:25 Обновлено2017-04-08 17:48:47
Сетевая Нет
  http://s018.radikal.ru/i507/1605/a4/ac035f69f65b.gif
Чтобы скачать, необходимо авторизоваться или зарегистрироваться.
Статус: Одобрено администрацией
Хотите видеть детали Раздачи пройдите авторизацию или регистрацию!

Спасибо за понимание...
General
Complete name               : C:\Users\User\Desktop\Клэптон\Eric.Clapton-Live.in.San.Diego.2007.2016.XviD.BDRip-Лумина.avi
Format                      : AVI
Format/Info                 : Audio Video Interleave
File size                   : 1.45 GiB
Duration                    : 1 h 45 min
Overall bit rate            : 1 971 kb/s
Writing application         : VirtualDubMod 1.5.10.3 | www.virtualdub-fr.org || (build 2550/release)
Writing library             : VirtualDubMod build 2550/release

Video
ID                          : 0
Format                      : MPEG-4 Visual
Format profile              : Advanced Simple@L5
Format settings, BVOP       : 2
Format settings, QPel       : No
Format settings, GMC        : No warppoints
Format settings, Matrix     : Custom
Codec ID                    : XVID
Codec ID/Hint               : XviD
Duration                    : 1 h 45 min
Bit rate                    : 1 578 kb/s
Width                       : 704 pixels
Height                      : 400 pixels
Display aspect ratio        : 16:9
Frame rate                  : 23.976 (24000/1001) FPS
Color space                 : YUV
Chroma subsampling          : 4:2:0
Bit depth                   : 8 bits
Scan type                   : Progressive
Compression mode            : Lossy
Bits/(Pixel*Frame)          : 0.234
Stream size                 : 1.16 GiB (80%)
Writing library             : XviD 65

Audio
ID                          : 1
Format                      : AC-3
Format/Info                 : Audio Coding 3
Mode extension              : CM (complete main)
Format settings, Endianness : Big
Codec ID                    : 2000
Duration                    : 1 h 45 min
Bit rate mode               : Constant
Bit rate                    : 384 kb/s
Channel(s)                  : 6 channels
Channel positions           : Front: L C R, Side: L R, LFE
Sampling rate               : 48.0 kHz
Frame rate                  : 31.250 FPS (1536 spf)
Bit depth                   : 16 bits
Compression mode            : Lossy
Stream size                 : 290 MiB (19%)
Alignment                   : Split accross interleaves
Interleave, duration        : 42  ms (1.00 video frame)
Interleave, preload duratio : 500  ms

http://s014.radikal.ru/i327/1704/35/2d5265528889t.jpg http://s014.radikal.ru/i329/1704/d3/aa5d939b30bdt.jpg
http://s008.radikal.ru/i303/1704/3d/71c3f3b33a55t.jpg http://s019.radikal.ru/i601/1704/41/4b273421ebc5t.jpg
http://s020.radikal.ru/i717/1704/fa/84c2edc5554dt.jpg http://s019.radikal.ru/i615/1704/99/c664cdff3e2bt.jpg
01. Tell The Truth
02. Key to the Highway
03. Got to Get Better in a Little While
04. Anyday
05. Anyway the Wind Blows
06. After Midnight
07. Who Am I Telling You?
08. Don’t Cry Sister
09. Cocaine
10. Motherless Children
11. Little Queen of Spades
12. Further On Up the Road
13. Wonderful Tonight
14. Layla
15. Crossroads

iceluka | 2017-04-08 19:26:38
 
Большое спасибо!
  |

Страницы:  1 
Привет, гость
- Запомнить
Регистрация
Информация

Торрент трекер ExKinoRay.TV

Здесь вы можете скачать новые фильмы, сериалы, игры, музыку, софт и многое другое. Большая скорость скачивания на мультитрекерных раздачах. Всё абсолютно бесплатно.