The Australian Pink Floyd Show - Everything Under The Sun 2016 | 2017 | HDRip - Лумина Одобрено администрацией

Участники
  • Раздают1
  • Качают0
  • Просмотров296
  • Скачали2
  • Комментариев1
  • Список файлов1
Залил раздачу
Поблагодарить
Характеристики
Вес1.99 GB (2,141,802,496)
Залит2017-04-15 20:42:44 Обновлено2017-04-15 20:43:14
Сетевая Нет
  http://s018.radikal.ru/i507/1605/a4/ac035f69f65b.gif
Чтобы скачать, необходимо авторизоваться или зарегистрироваться.
Статус: Одобрено администрацией
Хотите видеть детали Раздачи пройдите авторизацию или регистрацию!

Спасибо за понимание...
General
Complete name               : C:\Users\User\Desktop\Азия\The.Australian.Pink.Floyd.Show-Everything.Under.the.Sun(Live.in.Germany.2016)2017.XviD.HDRip-Лумина.avi
Format                      : AVI
Format/Info                 : Audio Video Interleave
Format profile              : OpenDML
File size                   : 1.99 GiB
Duration                    : 2 h 26 min
Overall bit rate            : 1 953 kb/s
Writing application         : VirtualDubMod 1.5.10.3 | www.virtualdub-fr.org || (build 2550/release)
Writing library             : VirtualDubMod build 2550/release

Video
ID                          : 0
Format                      : MPEG-4 Visual
Format profile              : Advanced Simple@L5
Format settings, BVOP       : 2
Format settings, QPel       : No
Format settings, GMC        : No warppoints
Format settings, Matrix     : Custom
Codec ID                    : XVID
Codec ID/Hint               : XviD
Duration                    : 2 h 26 min
Bit rate                    : 1 684 kb/s
Width                       : 704 pixels
Height                      : 304 pixels
Display aspect ratio        : 2.35:1
Frame rate                  : 25.000 FPS
Color space                 : YUV
Chroma subsampling          : 4:2:0
Bit depth                   : 8 bits
Scan type                   : Progressive
Compression mode            : Lossy
Bits/(Pixel*Frame)          : 0.315
Stream size                 : 1.72 GiB (86%)
Writing library             : XviD 65

Audio
ID                          : 1
Format                      : AC-3
Format/Info                 : Audio Coding 3
Mode extension              : CM (complete main)
Format settings, Endianness : Big
Codec ID                    : 2000
Duration                    : 2 h 26 min
Bit rate mode               : Constant
Bit rate                    : 256 kb/s
Channel(s)                  : 2 channels
Channel positions           : Front: L R
Sampling rate               : 48.0 kHz
Frame rate                  : 31.250 FPS (1536 spf)
Bit depth                   : 16 bits
Compression mode            : Lossy
Stream size                 : 268 MiB (13%)
Alignment                   : Split accross interleaves
Interleave, duration        : 40  ms (1.00 video frame)
Interleave, preload duratio : 500  ms

http://s019.radikal.ru/i641/1704/d1/e26f8730f764t.jpg http://s019.radikal.ru/i639/1704/5b/709a2e396829t.jpg
http://s013.radikal.ru/i322/1704/aa/63e80a1a06dct.jpg http://s04.radikal.ru/i177/1704/58/b6dd57832a7dt.jpg
http://s010.radikal.ru/i313/1704/8a/5a425567126ct.jpg http://s50.radikal.ru/i130/1704/66/0f265fdbb18ft.jpg
01. Astronomy Domine
02. Shine On You Crazy Diamond 1-5
03. Time & Breathe Reprise
04. The Great Gig In The Sky
05. On The Turning Away
06. Wish You Were Here
07. Us & Them
08. Any Colour You Like
09. Brain Damage
10. Eclipse
11. The Happiest Days Of Our Lives & Another Brick In The Wall Part 2
12. Pigs (Three Different Ones)
13. Set The Controls For The Heart Of The Sun
14. Learning To Fly
15. Hey You
16. The Fletcher Memorial Home
17. What Do You Want From Me
18. Sorrow
19. One Of These Days
20. Comfortably Numb
21. Run Like Hell

| 2017-04-16 13:43:39
 
ой, не заметил что это трибьют
  |

Страницы:  1 
Привет, гость
- Запомнить
Регистрация
Информация

Торрент трекер ExKinoRay.TV

Здесь вы можете скачать новые фильмы, сериалы, игры, музыку, софт и многое другое. Большая скорость скачивания на мультитрекерных раздачах. Всё абсолютно бесплатно.