Metallica - Lollapalooza Brazil | 2017 | HDTVRip - Лумина Одобрено администрацией

Участники
  • Раздают5
  • Качают0
  • Просмотров283
  • Скачали1
  • Комментариев0
  • Список файлов1
Залил раздачу
Поблагодарить
Характеристики
Вес1.99 GB (2,141,147,136)
Залит2017-04-16 22:30:54 Обновлено2017-04-16 22:31:16
Сетевая Нет
  http://s018.radikal.ru/i507/1605/a4/ac035f69f65b.gif
Чтобы скачать, необходимо авторизоваться или зарегистрироваться.
Статус: Одобрено администрацией
Хотите видеть детали Раздачи пройдите авторизацию или регистрацию!

Спасибо за понимание...
General
Complete name               : C:\Users\User\Desktop\Дюран\Metallica-Lollapalooza.Brazil.2017.XviD.HDTVRip-Лумина.avi
Format                      : AVI
Format/Info                 : Audio Video Interleave
Format profile              : OpenDML
File size                   : 1.99 GiB
Duration                    : 2 h 17 min
Overall bit rate            : 2 076 kb/s
Writing application         : VirtualDubMod 1.5.10.3 | www.virtualdub-fr.org || (build 2550/release)
Writing library             : VirtualDubMod build 2550/release

Video
ID                          : 0
Format                      : MPEG-4 Visual
Format profile              : Advanced Simple@L5
Format settings, BVOP       : 2
Format settings, QPel       : No
Format settings, GMC        : No warppoints
Format settings, Matrix     : Custom
Codec ID                    : XVID
Codec ID/Hint               : XviD
Duration                    : 2 h 17 min
Bit rate                    : 1 680 kb/s
Width                       : 704 pixels
Height                      : 400 pixels
Display aspect ratio        : 16:9
Frame rate                  : 23.976 (24000/1001) FPS
Original frame rate         : 23.976 (23976/1000) FPS
Color space                 : YUV
Chroma subsampling          : 4:2:0
Bit depth                   : 8 bits
Scan type                   : Progressive
Compression mode            : Lossy
Bits/(Pixel*Frame)          : 0.249
Stream size                 : 1.61 GiB (81%)
Writing library             : XviD 65

Audio
ID                          : 1
Format                      : AC-3
Format/Info                 : Audio Coding 3
Mode extension              : CM (complete main)
Format settings, Endianness : Big
Codec ID                    : 2000
Duration                    : 2 h 17 min
Bit rate mode               : Constant
Bit rate                    : 384 kb/s
Channel(s)                  : 6 channels
Channel positions           : Front: L C R, Side: L R, LFE
Sampling rate               : 48.0 kHz
Frame rate                  : 31.250 FPS (1536 spf)
Bit depth                   : 16 bits
Compression mode            : Lossy
Stream size                 : 378 MiB (18%)
Alignment                   : Split accross interleaves
Interleave, duration        : 42  ms (1.00 video frame)
Interleave, preload duratio : 500  ms

http://s011.radikal.ru/i316/1704/38/42a51f7e039dt.jpg http://s010.radikal.ru/i313/1704/b0/2677843b1599t.jpg
http://s019.radikal.ru/i604/1704/0f/a84072499814t.jpg http://s020.radikal.ru/i709/1704/97/6c9f7ddde770t.jpg
http://s020.radikal.ru/i702/1704/16/c741cb8f8ef0t.jpg http://s009.radikal.ru/i307/1704/d8/e188b7513262t.jpg
01. Ecstasy Of Gold
02. Hardwired… To Self-Destruct
03. Atlas, Rise!
04. For Whom The Bell Tolls
05. The Memory Remains
06. Kirk’s Solo 1
07. The Unforgiven
08. Now That We’re Dead
09. Moth Into Flame
10. Harvester Of Sorrow
11. Halo On Fire
12. Rob’s Solo
13. Anesthesia (Pulling Teeth)
14. Whiplash
15. Sad But True
16. One
17. Master Of Puppets
18. Kirk’s Solo 2
18. Fade To Black
19. Seek And Destroy
20. Battery
21. Nothing Else Matters
22. Enter Sandman


Привет, гость
- Запомнить
Регистрация
Информация

Торрент трекер ExKinoRay.TV

Здесь вы можете скачать новые фильмы, сериалы, игры, музыку, софт и многое другое. Большая скорость скачивания на мультитрекерных раздачах. Всё абсолютно бесплатно.