Концерт Роллинг Стоунз на Кубе | The Rolling Stones Havana Moon 2016 | 2017 | HDTVRip MVO - Лумина Одобрено администрацией

Участники
  • Раздают2
  • Качают0
  • Просмотров230
  • Скачали1
  • Комментариев0
  • Список файлов1
Залил раздачу
Поблагодарить
Характеристики
Вес1.37 GB (1,469,865,984)
Залит2017-04-17 15:23:26 Обновлено2017-04-17 15:23:44
Сетевая Нет
  http://s018.radikal.ru/i507/1605/a4/ac035f69f65b.gif
Чтобы скачать, необходимо авторизоваться или зарегистрироваться.
Статус: Одобрено администрацией
Хотите видеть детали Раздачи пройдите авторизацию или регистрацию!

Спасибо за понимание...
General
Complete name               : C:\Users\User\Desktop\Ролинг\The.Rolling.Stones-Havana.Moon.2016.2017.XviD.HDTVRip-Лумина.avi
Format                      : AVI
Format/Info                 : Audio Video Interleave
File size                   : 1.37 GiB
Duration                    : 1 h 45 min
Overall bit rate            : 1 853 kb/s
Writing application         : VirtualDubMod 1.5.10.3 | www.virtualdub-fr.org || (build 2550/release)
Writing library             : VirtualDubMod build 2550/release

Video
ID                          : 0
Format                      : MPEG-4 Visual
Format profile              : Advanced Simple@L5
Format settings, BVOP       : 2
Format settings, QPel       : No
Format settings, GMC        : No warppoints
Format settings, Matrix     : Custom
Codec ID                    : XVID
Codec ID/Hint               : XviD
Duration                    : 1 h 45 min
Bit rate                    : 1 587 kb/s
Width                       : 704 pixels
Height                      : 304 pixels
Display aspect ratio        : 2.35:1
Frame rate                  : 25.000 FPS
Color space                 : YUV
Chroma subsampling          : 4:2:0
Bit depth                   : 8 bits
Scan type                   : Progressive
Compression mode            : Lossy
Bits/(Pixel*Frame)          : 0.297
Stream size                 : 1.17 GiB (86%)
Writing library             : XviD 65

Audio
ID                          : 1
Format                      : AC-3
Format/Info                 : Audio Coding 3
Mode extension              : CM (complete main)
Format settings, Endianness : Big
Codec ID                    : 2000
Duration                    : 1 h 45 min
Bit rate mode               : Constant
Bit rate                    : 256 kb/s
Channel(s)                  : 2 channels
Channel positions           : Front: L R
Sampling rate               : 48.0 kHz
Frame rate                  : 31.250 FPS (1536 spf)
Bit depth                   : 16 bits
Compression mode            : Lossy
Stream size                 : 194 MiB (14%)
Alignment                   : Split accross interleaves
Interleave, duration        : 40  ms (1.00 video frame)
Interleave, preload duratio : 500  ms

http://s019.radikal.ru/i634/1704/51/34a824d9da0et.jpg http://s014.radikal.ru/i329/1704/b2/bbcf007d1d2bt.jpg
http://s45.radikal.ru/i109/1704/db/d992531701f1t.jpg http://s016.radikal.ru/i336/1704/4c/ea30b170db7bt.jpg
http://s014.radikal.ru/i329/1704/ca/fd883ffcb218t.jpg http://i079.radikal.ru/1704/41/58a437ced6b4t.jpg
01. It's About Time...
02. Jumpin' Jack Flash
03. It's Only Rock 'N Roll (But I Like It)
04. Out Of Control
05. Angie
06. Paint It Black
07. Honky Tonk Women
08. Band Introductions
09. You Got The Silver
10. Midnight Rambler
11. Gimme Shelter
12. Sympathy For The Devil
13. Brown Sugar
14. Still Getting Better...
15. You Can t Always Get What You Want
16. (I Can't Get No) Satisfaction


Привет, гость
- Запомнить
Регистрация
Информация

Торрент трекер ExKinoRay.TV

Здесь вы можете скачать новые фильмы, сериалы, игры, музыку, софт и многое другое. Большая скорость скачивания на мультитрекерных раздачах. Всё абсолютно бесплатно.