. 2 | Guardians of the Galaxy Vol. 2 | 2017 | TC - freerutor
  • 0
  • 0
  • 123
  • 0
  • 1
  • 1
2.05 GB (2,204,649,472)
2017-05-19 19:05:43 2017-05-20 07:12:59
   http://funkyimg.com/i/2dJyN.gif
, .
:
!

...


eneral
Complete name: C:\Users\Mersicc\Desktop\Stragi.Halktiki.2.2O17.P.Telecine.21OOMB_KOSHARA.avi
Format : AVI
Format/Info: Audio Video Interleave
Format profile : OpenDML
File size: 2.05 GiB
Duration : 2h 8mn
Overall bit rate : 2 286 Kbps
Writing application: VirtualDubMod 1.5.10.2 (build 2540/release)
Writing library: VirtualDubMod build 2540/release

Video
ID : 0
Format : MPEG-4 Visual
Format profile : Advanced Simple@L5
Format settings, BVOP: 2
Format settings, QPel: No
Format settings, GMC : No warppoints
Format settings, Matrix: Default (MPEG)
Codec ID : XVID
Codec ID/Hint: XviD
Duration : 2h 8mn
Bit rate : 1 887 Kbps
Width: 720 pixels
Height : 288 pixels
Display aspect ratio : 2.500
Frame rate : 29.970 fps
Color space: YUV
Chroma subsampling : 4:2:0
Bit depth: 8 bits
Scan type: Progressive
Compression mode : Lossy
Bits/(Pixel*Frame) : 0.304
Stream size: 1.69 GiB (83%)
Writing library: XviD 1.2.1 (UTC 2008-12-04)

Audio
ID : 1
Format : AC-3
Format/Info: Audio Coding 3
Mode extension : CM (complete main)
Format settings, Endianness: Big
Codec ID : 2000
Duration : 2h 8mn
Bit rate mode: Constant
Bit rate : 384 Kbps
Channel(s) : 2 channels
Channel positions: Front: L R
Sampling rate: 48.0 KHz
Bit depth: 16 bits
Compression mode : Lossy
Stream size: 353 MiB (17%)
Alignment: Split accross interleaves
Interleave, duration : 33 ms (1.00 video frame)
Interleave, preload duration : 500 ms

     

morfyi | 2017-05-20 07:09:39
 
: (CAMRip, Telesync (TS), Super Telesync (SuperTS), Telecine (TC), Workprint (WP), Screener (SCR), DVDScreener (DVDScr), VHSScreener (VHSScr))

http://forum.exkinoray.tv/pravila-kinomontyorov/topic-8.html


  |

:  1 
,

ExKinoRay.TV

, , , , , . . .