Billboard Music Awards | 2017 | HDTVRip -
  • 7
  • 0
  • 68
  • 0
  • 0
  • 1
1.99 GB (2,140,053,504)
2017-05-30 17:32:25 2017-05-30 17:32:52
  http://s018.radikal.ru/i507/1605/a4/ac035f69f65b.gif
, .
:
!

...
General
Complete name : C:\Users\User\Desktop\Billboard Music Awards\The.Billboard.Music.Awards.2017.XviD.HDTVRip-.avi
Format: AVI
Format/Info : Audio Video Interleave
Format profile: OpenDML
File size : 1.99 GiB
Duration: 2 h 10 min
Overall bit rate: 2 182 kb/s
Writing application : VirtualDubMod 1.5.10.3 | www.virtualdub-fr.org || (build 2550/release)
Writing library : VirtualDubMod build 2550/release

Video
ID: 0
Format: MPEG-4 Visual
Format profile: Advanced Simple@L5
Format settings, BVOP : 2
Format settings, QPel : No
Format settings, GMC: No warppoints
Format settings, Matrix : Custom
Codec ID: XVID
Codec ID/Hint : XviD
Duration: 2 h 10 min
Bit rate: 1 913 kb/s
Width : 704 pixels
Height: 400 pixels
Display aspect ratio: 16:9
Frame rate: 25.000 FPS
Color space : YUV
Chroma subsampling: 4:2:0
Bit depth : 8 bits
Scan type : Progressive
Compression mode: Lossy
Bits/(Pixel*Frame): 0.272
Stream size : 1.75 GiB (88%)
Writing library : XviD 65

Audio
ID: 1
Format: AC-3
Format/Info : Audio Coding 3
Mode extension: CM (complete main)
Format settings, Endianness : Big
Codec ID: 2000
Duration: 2 h 10 min
Bit rate mode : Constant
Bit rate: 256 kb/s
Channel(s): 2 channels
Channel positions : Front: L R
Sampling rate : 48.0 kHz
Frame rate: 31.250 FPS (1536 spf)
Bit depth : 16 bits
Compression mode: Lossy
Stream size : 239 MiB (12%)
Alignment : Split accross interleaves
Interleave, duration: 40ms (1.00 video frame)
Interleave, preload duratio : 500ms

http://s016.radikal.ru/i336/1705/76/ad5ce1af42f9t.jpg http://s019.radikal.ru/i629/1705/05/9399b275c0a3t.jpg
http://s019.radikal.ru/i621/1705/e5/8119ec6a94d7t.jpg http://s018.radikal.ru/i509/1705/6b/3b428421d6e3t.jpg
http://s018.radikal.ru/i514/1705/11/61a2bd08544ct.jpg http://s016.radikal.ru/i336/1705/85/b11e90d7b420t.jpg
01. Nicki Minaj, Jason Derulo, David Guetta, Lil Wayne - "No Frauds", "Light My Body Up", "Swalla", "Regret In Your Tears".
02. Camila Cabello - "I Have Questions", "Crying in the Club".
03. The Chainsmokers - "Young".
04. Julia Michaels - "Issues".
05. Ed Sheeran - "Castle on the Hill"*
06. Miley Cyrus - "Malibu".
07. Lorde - "Green Light".
08. Sam Hunt - "Body Like a Back Road".
09. Celine Dion - "My Heart Will Go On".
10. Imagine Dragons - "Believer".
11. Drake - "Gyalchester"*
12. Halsey - "Now or Never".
13. Florida Georgia Line, John Legend - "Surefire", "H.O.L.Y.".
14. Cher - "Believe", "If I Could Turn Back Time".
15. Bruno Mars - "Versace on the Floor"


,

ExKinoRay.TV

, , , , , . . .