Rod Stewart - The Video Hits Collection | 2017 | WEBRip -
  • 14
  • 3
  • 68
  • 0
  • 0
  • 1
976.28 MB (1,023,707,136)
2017-05-31 13:40:31 2017-05-31 13:40:53
  http://s018.radikal.ru/i507/1605/a4/ac035f69f65b.gif
, .
:
!

...
General
Complete name : C:\Users\User\Desktop\ZZTop\Rod.Stewart.-The.Video.Hits.Collection.2017.XviD.WEBRip-.avi.avi
Format: AVI
Format/Info : Audio Video Interleave
File size : 976 MiB
Duration: 1 h 17 min
Overall bit rate: 1 757 kb/s
Writing application : VirtualDubMod 1.5.10.3 | www.virtualdub-fr.org || (build 2550/release)
Writing library : VirtualDubMod build 2550/release

Video
ID: 0
Format: MPEG-4 Visual
Format profile: Advanced Simple@L5
Format settings, BVOP : 2
Format settings, QPel : No
Format settings, GMC: No warppoints
Format settings, Matrix : Custom
Codec ID: XVID
Codec ID/Hint : XviD
Duration: 1 h 17 min
Bit rate: 1 620 kb/s
Width : 704 pixels
Height: 400 pixels
Display aspect ratio: 16:9
Frame rate: 25.000 FPS
Color space : YUV
Chroma subsampling: 4:2:0
Bit depth : 8 bits
Scan type : Progressive
Compression mode: Lossy
Bits/(Pixel*Frame): 0.230
Stream size : 900 MiB (92%)
Writing library : XviD 65

Audio
ID: 1
Format: MPEG Audio
Format version: Version 1
Format profile: Layer 3
Mode: Joint stereo
Mode extension: MS Stereo
Codec ID: 55
Codec ID/Hint : MP3
Duration: 1 h 17 min
Bit rate mode : Constant
Bit rate: 128 kb/s
Channel(s): 2 channels
Sampling rate : 44.1 kHz
Compression mode: Lossy
Stream size : 71.1 MiB (7%)
Alignment : Split accross interleaves
Interleave, duration: 40ms (1.00 video frame)
Interleave, preload duratio : 500ms
Writing library : LAME3.99r
Encoding settings : -m j -V 4 -q 2 -lowpass 17 -b 128

http://s019.radikal.ru/i623/1705/f5/8d8c0add6734t.jpg http://s42.radikal.ru/i096/1705/ac/5ca328e62d60t.jpg
http://s018.radikal.ru/i505/1705/79/726e305424f9t.jpg http://s019.radikal.ru/i643/1705/2e/5da30b963460t.jpg
http://s018.radikal.ru/i518/1705/78/37caa52a291dt.jpg http://s015.radikal.ru/i331/1705/84/2563dd7323a5t.jpg
01. Do Ya Think I' m Sexy
02. Ain' t Love a Bitch
03. Sailing
04. Baby Jane
05. Tonight' s The Night (Gonna Be Alright)
06. Passion
07. What Am I Gonna Do (I' m So in Love With You)
08. Young Turks
09. Love Touch
10. Some Guys Have All The Luck
11. Twistin' The Night Away
12. Crazy About Her
13. Infatuation
14. Lost in You
15. Rhythm of My Heart
16. The Motown Song
17. Broken Arrow
18. Reason To Believe
19. What a Wonderful World


,

ExKinoRay.TV

, , , , , . . .