Chris Rea - The Video Hits Collection | 2017 | WEBRip -
  • 12
  • 3
  • 71
  • 0
  • 0
  • 1
909.18 MB (953,349,038)
2017-05-31 17:45:30 2017-05-31 17:45:52
  http://s018.radikal.ru/i507/1605/a4/ac035f69f65b.gif
, .
:
!

...
General
Complete name : C:\Users\User\Desktop\ZZTop\Chris.Rea.-The.Video.Hits.Collection.2017.XviD.WEBRip-.avi
Format: AVI
Format/Info : Audio Video Interleave
File size : 909 MiB
Duration: 1 h 25 min
Overall bit rate: 1 487 kb/s
Writing application : VirtualDubMod 1.5.10.3 | www.virtualdub-fr.org || (build 2550/release)
Writing library : VirtualDub build 35491/release

Video
ID: 0
Format: MPEG-4 Visual
Format profile: Advanced Simple@L5
Format settings, BVOP : 2
Format settings, QPel : No
Format settings, GMC: No warppoints
Format settings, Matrix : Custom
Codec ID: XVID
Codec ID/Hint : XviD
Duration: 1 h 25 min
Bit rate: 1 349 kb/s
Width : 704 pixels
Height: 400 pixels
Display aspect ratio: 16:9
Frame rate: 25.000 FPS
Color space : YUV
Chroma subsampling: 4:2:0
Bit depth : 8 bits
Scan type : Progressive
Compression mode: Lossy
Bits/(Pixel*Frame): 0.192
Stream size : 825 MiB (91%)
Writing library : XviD 65

Audio
ID: 1
Format: MPEG Audio
Format version: Version 1
Format profile: Layer 3
Mode: Joint stereo
Mode extension: MS Stereo
Codec ID: 55
Codec ID/Hint : MP3
Duration: 1 h 25 min
Bit rate mode : Constant
Bit rate: 128 kb/s
Channel(s): 2 channels
Sampling rate : 44.1 kHz
Compression mode: Lossy
Delay relative to video : 21 ms
Stream size : 78.3 MiB (9%)
Alignment : Split accross interleaves
Interleave, duration: 40ms (1.00 video frame)
Interleave, preload duratio : 500ms

http://s016.radikal.ru/i335/1705/ba/b8275047f77ct.jpg http://s019.radikal.ru/i605/1705/66/35c764512f09t.jpg
http://s018.radikal.ru/i522/1705/b3/244e2bdc1334t.jpg http://s018.radikal.ru/i518/1705/85/88b7581946fdt.jpg
http://s010.radikal.ru/i313/1705/90/c93e9053d7e9t.jpg http://s019.radikal.ru/i635/1705/d2/6bcdbb1da3cdt.jpg
01. The Road To Hell
02. Josephine
03. On The Beach
04. Fool (If You Think It' s Over)
05. I Can Hear Your Heartbeat
06. Que Sera
07. MIdnight Blue
08. Hello Friend
09. It' s All Gone
10. The Road To Hell
11. Windy Town
12. On The Beach
13. Driving Home For Christmas
14. Soft Top, Hard Shoulder
15. The Blue Cafe
16. Auberge
17. Looking For The Summer
18. Too Much Pride
19. The Way You Look Tonight
20. All Summer Long
21. The Road To Hell


,

ExKinoRay.TV

, , , , , . . .