Chris Cornell - Rock am Ring | 2009 | HDTVRip -
  • 2
  • 0
  • 66
  • 0
  • 0
  • 1
743.74 MB (779,870,208)
2017-05-31 19:34:28 2017-05-31 19:34:46
  http://s018.radikal.ru/i507/1605/a4/ac035f69f65b.gif
, .
:
!

...
General
Complete name : C:\Users\User\Desktop\ZZTop\Chris.Cornell-Rock.am.Ring.2009.XviD.HDTVRip-.avi
Format: AVI
Format/Info : Audio Video Interleave
File size : 744 MiB
Duration: 46 min 56 s
Overall bit rate: 2 215 kb/s
Writing application : VirtualDubMod 1.5.10.3 | www.virtualdub-fr.org || (build 2550/release)
Writing library : VirtualDubMod build 2550/release

Video
ID: 0
Format: MPEG-4 Visual
Format profile: Advanced Simple@L5
Format settings, BVOP : 2
Format settings, QPel : No
Format settings, GMC: No warppoints
Format settings, Matrix : Custom
Codec ID: XVID
Codec ID/Hint : XviD
Duration: 46 min 56 s
Bit rate: 1 950 kb/s
Width : 704 pixels
Height: 400 pixels
Display aspect ratio: 16:9
Frame rate: 25.000 FPS
Color space : YUV
Chroma subsampling: 4:2:0
Bit depth : 8 bits
Scan type : Progressive
Compression mode: Lossy
Bits/(Pixel*Frame): 0.277
Stream size : 655 MiB (88%)
Writing library : XviD 65

Audio
ID: 1
Format: AC-3
Format/Info : Audio Coding 3
Mode extension: CM (complete main)
Format settings, Endianness : Big
Codec ID: 2000
Duration: 46 min 56 s
Bit rate mode : Constant
Bit rate: 256 kb/s
Channel(s): 2 channels
Channel positions : Front: L R
Sampling rate : 48.0 kHz
Frame rate: 31.250 FPS (1536 spf)
Bit depth : 16 bits
Compression mode: Lossy
Stream size : 85.9 MiB (12%)
Alignment : Split accross interleaves
Interleave, duration: 40ms (1.00 video frame)
Interleave, preload duratio : 500ms

http://s018.radikal.ru/i514/1705/2d/4649803585dft.jpg http://s018.radikal.ru/i522/1705/e7/b22b5d458274t.jpg
http://s018.radikal.ru/i522/1705/a0/e1b67ef50ce3t.jpg http://s019.radikal.ru/i601/1705/27/e8b6462a195bt.jpg
http://s010.radikal.ru/i312/1705/94/cfe1880b5c67t.jpg http://s019.radikal.ru/i620/1705/51/ec52ad54326at.jpg
01. Part Of Me
02. Time
03. Enemy
04. Cochise
05. Show Me How To Live
06. Hunger Strike
07. Spoonman (Incl. Good Times, Bad Times)
08. Scream
09. Watch Out
10. Black Hole Sun


,

ExKinoRay.TV

, , , , , . . .