Mireille Mathieu - The Video Hits Collection | 2017 | WEBRip -
  • 7
  • 3
  • 34
  • 0
  • 0
  • 1
0.99 GB (1,061,967,162)
2017-07-21 19:38:14 2017-07-21 19:38:41
  http://s018.radikal.ru/i507/1605/a4/ac035f69f65b.gif
, .
:
!

...
General
Complete name : C:\Users\User\Desktop\ (2)\Mireille.Mathieu-The.Video.Hits.Collection.2017.XviD.WEBRip-.avi
Format: AVI
Format/Info : Audio Video Interleave
File size : 1 013 MiB
Duration: 1 h 6 min
Overall bit rate: 2 113 kb/s
Writing application : VirtualDubMod 1.5.10.3 | www.virtualdub-fr.org || (build 2550/release)
Writing library : VirtualDub build 35491/release

Video
ID: 0
Format: MPEG-4 Visual
Format profile: Advanced Simple@L5
Format settings, BVOP : 2
Format settings, QPel : No
Format settings, GMC: No warppoints
Format settings, Matrix : Custom
Codec ID: XVID
Codec ID/Hint : XviD
Duration: 1 h 6 min
Bit rate: 1 976 kb/s
Width : 704 pixels
Height: 400 pixels
Display aspect ratio: 16:9
Frame rate: 25.000 FPS
Color space : YUV
Chroma subsampling: 4:2:0
Bit depth : 8 bits
Scan type : Progressive
Compression mode: Lossy
Bits/(Pixel*Frame): 0.281
Stream size : 947 MiB (93%)
Writing library : XviD 65

Audio
ID: 1
Format: MPEG Audio
Format version: Version 1
Format profile: Layer 3
Mode: Joint stereo
Mode extension: MS Stereo
Codec ID: 55
Codec ID/Hint : MP3
Duration: 1 h 6 min
Bit rate mode : Constant
Bit rate: 128 kb/s
Channel(s): 2 channels
Sampling rate : 44.1 kHz
Compression mode: Lossy
Delay relative to video : 9 ms
Stream size : 61.3 MiB (6%)
Alignment : Split accross interleaves
Interleave, duration: 40ms (1.00 video frame)
Interleave, preload duratio : 500ms
Writing library : LAME3.99.5

http://s016.radikal.ru/i335/1707/3a/7be7ca15b011t.jpg http://s019.radikal.ru/i633/1707/61/10ae7d94d351t.jpg
http://s019.radikal.ru/i625/1707/b4/2a7bd226f6adt.jpg http://s019.radikal.ru/i636/1707/65/641304b5a90ct.jpg
http://s018.radikal.ru/i513/1707/f9/b1fb275b8bc3t.jpg http://s013.radikal.ru/i322/1707/cc/6e49f9142489t.jpg
01. Ciao, Bambino, Sorry
02. Pardonne-Moi Ce Caprice D' enfant
03. Amour Défendu
04. Apprends-Moi
05. Le Vieux Café De La Rue D' amérique
06. On Ne Vit Pas Sans Se Dire Adieu
07. Ciao Mon Coeur
08. Bravo, Tu As Gagné
09. Une Femme Amoureuse
10. Be-Bop-A-Lula (feat Michael Holm & Peter Maffay)
11. Together We' re Strong (feat Patrick Duffy)
12. Une Vie D' amour (feat Charles Aznavour)
13. Enfants D' amour Et D' avenir
14. Padam, Padam
15. Non, Je Ne Regrette Pas Rien
16. Nos Souvenirs (Memory)
17. La Vie En Rose
18. Bravo, Tu As Gagné
19. Ciao, Bambino, Sorry


,

ExKinoRay.TV

, , , , , . . .