- | 2016 | WEBRip -
  • 17
  • 0
  • 39
  • 0
  • 0
  • 1
1.36 GB (1,457,524,736)
2017-07-21 22:32:35 2017-07-21 22:33:00
  http://s018.radikal.ru/i507/1605/a4/ac035f69f65b.gif
, .
:
!

...
General
Complete name : C:\Users\User\Desktop\ (2)\Igor.Talkov-Luchshie.pesni.2016.XviD.WEBRip-.avi
Format: AVI
Format/Info : Audio Video Interleave
File size : 1.36 GiB
Duration: 1 h 38 min
Overall bit rate: 1 978 kb/s
Writing application : VirtualDubMod 1.5.10.3 | www.virtualdub-fr.org || (build 2550/release)
Writing library : VirtualDubMod build 2550/release

Video
ID: 0
Format: MPEG-4 Visual
Format profile: Advanced Simple@L5
Format settings, BVOP : 2
Format settings, QPel : No
Format settings, GMC: No warppoints
Format settings, Matrix : Custom
Codec ID: XVID
Codec ID/Hint : XviD
Duration: 1 h 38 min
Bit rate: 1 841 kb/s
Width : 704 pixels
Height: 400 pixels
Display aspect ratio: 16:9
Frame rate: 25.000 FPS
Color space : YUV
Chroma subsampling: 4:2:0
Bit depth : 8 bits
Scan type : Progressive
Compression mode: Lossy
Bits/(Pixel*Frame): 0.261
Stream size : 1.26 GiB (93%)
Writing library : XviD 65

Audio
ID: 1
Format: MPEG Audio
Format version: Version 1
Format profile: Layer 3
Mode: Joint stereo
Mode extension: MS Stereo
Codec ID: 55
Codec ID/Hint : MP3
Duration: 1 h 38 min
Bit rate mode : Constant
Bit rate: 128 kb/s
Channel(s): 2 channels
Sampling rate : 44.1 kHz
Compression mode: Lossy
Stream size : 89.9 MiB (6%)
Alignment : Split accross interleaves
Interleave, duration: 40ms (1.00 video frame)
Interleave, preload duratio : 500ms
Writing library : LAME3.99r
Encoding settings : -m j -V 4 -q 2 -lowpass 17 -b 128

http://s019.radikal.ru/i608/1707/9e/87d4f4464aaat.jpg http://s019.radikal.ru/i637/1707/c6/bd41024646a6t.jpg
http://s018.radikal.ru/i513/1707/b5/1c075e9eef7bt.jpg http://s018.radikal.ru/i501/1707/bc/b811a99e0523t.jpg
http://s018.radikal.ru/i503/1707/58/c383c1972ebct.jpg http://s009.radikal.ru/i310/1707/ca/cbcd22222fc3t.jpg
01.
02.
03.
04.
05.
06.
07.
08.
09.
10.
11.
12.
13.
14.
15.
16.
17.
18.
19.


,

ExKinoRay.TV

, , , , , . . .