- | 2017 | WEBRip -
  • 4
  • 0
  • 34
  • 0
  • 0
  • 1
1.37 GB (1,470,435,328)
2017-07-22 13:46:01 2017-07-22 13:46:30
  http://s018.radikal.ru/i507/1605/a4/ac035f69f65b.gif
, .
:
!

...
General
Complete name : C:\Users\User\Desktop\ (2)\Vladimir.Kuzimin-Luchshie.pesni.2017.XviD.WEBRip-.avi
Format: AVI
Format/Info : Audio Video Interleave
File size : 1.37 GiB
Duration: 1 h 55 min
Overall bit rate: 1 693 kb/s
Writing application : VirtualDubMod 1.5.10.3 | www.virtualdub-fr.org || (build 2550/release)
Writing library : VirtualDubMod build 2550/release

Video
ID: 0
Format: MPEG-4 Visual
Format profile: Advanced Simple@L5
Format settings, BVOP : 2
Format settings, QPel : No
Format settings, GMC: No warppoints
Format settings, Matrix : Custom
Codec ID: XVID
Codec ID/Hint : XviD
Duration: 1 h 55 min
Bit rate: 1 556 kb/s
Width : 704 pixels
Height: 400 pixels
Display aspect ratio: 16:9
Frame rate: 25.000 FPS
Color space : YUV
Chroma subsampling: 4:2:0
Bit depth : 8 bits
Scan type : Progressive
Compression mode: Lossy
Bits/(Pixel*Frame): 0.221
Stream size : 1.26 GiB (92%)
Writing library : XviD 65

Audio
ID: 1
Format: MPEG Audio
Format version: Version 1
Format profile: Layer 3
Mode: Joint stereo
Codec ID: 55
Codec ID/Hint : MP3
Duration: 1 h 55 min
Bit rate mode : Constant
Bit rate: 128 kb/s
Channel(s): 2 channels
Sampling rate : 44.1 kHz
Compression mode: Lossy
Stream size : 106 MiB (8%)
Alignment : Split accross interleaves
Interleave, duration: 40ms (1.00 video frame)
Interleave, preload duratio : 500ms
Writing library : LAME3.99r
Encoding settings : -m j -V 4 -q 2 -lowpass 17 -b 128

http://s009.radikal.ru/i310/1707/15/7cab2e2dc9fdt.jpg http://s018.radikal.ru/i511/1707/ba/383de26c1e3et.jpg
http://s61.radikal.ru/i174/1707/b8/e4d4befc0a6bt.jpg http://s018.radikal.ru/i526/1707/07/379ea5376b98t.jpg
http://i056.radikal.ru/1707/a7/a68896a7ba99t.jpg http://s018.radikal.ru/i515/1707/47/81aceeb147d2t.jpg
01.
02.
03. -
04.
05.
06.
07.
08.
09.
10.
11. ,
12. -
13.
14.
15.
16.
17. -
18.
19. ,
20.
21.
22.
23.
24.
25.


,

ExKinoRay.TV

, , , , , . . .