- | 2015 | WEBRip -
  • 8
  • 0
  • 32
  • 0
  • 0
  • 1
595.31 MB (624,232,448)
2017-07-22 21:52:58 2017-07-22 21:53:23
  http://s018.radikal.ru/i507/1605/a4/ac035f69f65b.gif
, .
:
!

...
General
Complete name : C:\Users\User\Desktop\ (2)\Sergey.Trofimov--Luchshie.pesni.2015.XviD.WEBRip-.avi
Format: AVI
Format/Info : Audio Video Interleave
File size : 595 MiB
Duration: 39 min 53 s
Overall bit rate: 2 087 kb/s
Writing application : VirtualDubMod 1.5.10.3 | www.virtualdub-fr.org || (build 2550/release)
Writing library : VirtualDubMod build 2550/release

Video
ID: 0
Format: MPEG-4 Visual
Format profile: Advanced Simple@L5
Format settings, BVOP : 2
Format settings, QPel : No
Format settings, GMC: No warppoints
Format settings, Matrix : Custom
Codec ID: XVID
Codec ID/Hint : XviD
Duration: 39 min 53 s
Bit rate: 1 949 kb/s
Width : 704 pixels
Height: 400 pixels
Display aspect ratio: 16:9
Frame rate: 24.000 FPS
Color space : YUV
Chroma subsampling: 4:2:0
Bit depth : 8 bits
Scan type : Progressive
Compression mode: Lossy
Bits/(Pixel*Frame): 0.288
Stream size : 556 MiB (93%)
Writing library : XviD 65

Audio
ID: 1
Format: MPEG Audio
Format version: Version 1
Format profile: Layer 3
Mode: Joint stereo
Mode extension: MS Stereo
Codec ID: 55
Codec ID/Hint : MP3
Duration: 39 min 53 s
Bit rate mode : Constant
Bit rate: 128 kb/s
Channel(s): 2 channels
Sampling rate : 44.1 kHz
Compression mode: Lossy
Stream size : 36.5 MiB (6%)
Alignment : Split accross interleaves
Interleave, duration: 42ms (1.00 video frame)
Interleave, preload duratio : 500ms
Writing library : LAME3.99r
Encoding settings : -m j -V 4 -q 2 -lowpass 17 -b 128

http://s019.radikal.ru/i622/1707/19/66a0c4c86b29t.jpg http://s008.radikal.ru/i304/1707/7d/ae5a2281b795t.jpg
http://s013.radikal.ru/i325/1707/fb/544caf4a6247t.jpg http://s008.radikal.ru/i306/1707/12/f858ccf6063at.jpg
http://s013.radikal.ru/i322/1707/80/68f6847027dct.jpg http://s019.radikal.ru/i633/1707/3f/8f9b7686ec98t.jpg
01.
02.
03.
04. ,
05.
06.
07.
08.
09.
10.
11.


,

ExKinoRay.TV

, , , , , . . .