- | 2014 | WEBRip -
  • 12
  • 0
  • 28
  • 0
  • 0
  • 1
1.09 GB (1,171,927,040)
2017-07-23 15:04:06 2017-07-23 15:04:32
  http://s018.radikal.ru/i507/1605/a4/ac035f69f65b.gif
, .
:
!

...
General
Complete name : C:\Users\User\Desktop\ (2)\Mihail.Krug-Luchshie.pesni.2014.XviD.WEBRip-.avi
Format: AVI
Format/Info : Audio Video Interleave
File size : 1.09 GiB
Duration: 1 h 37 min
Overall bit rate: 1 603 kb/s
Writing application : VirtualDubMod 1.5.10.3 | www.virtualdub-fr.org || (build 2550/release)
Writing library : VirtualDubMod build 2550/release

Video
ID: 0
Format: MPEG-4 Visual
Format profile: Advanced Simple@L5
Format settings, BVOP : 2
Format settings, QPel : No
Format settings, GMC: No warppoints
Format settings, Matrix : Custom
Codec ID: XVID
Codec ID/Hint : XviD
Duration: 1 h 37 min
Bit rate: 1 466 kb/s
Width : 704 pixels
Height: 400 pixels
Display aspect ratio: 16:9
Frame rate: 25.000 FPS
Color space : YUV
Chroma subsampling: 4:2:0
Bit depth : 8 bits
Scan type : Progressive
Compression mode: Lossy
Bits/(Pixel*Frame): 0.208
Stream size : 1 022 MiB (91%)
Writing library : XviD 65

Audio
ID: 1
Format: MPEG Audio
Format version: Version 1
Format profile: Layer 3
Mode: Joint stereo
Mode extension: MS Stereo
Codec ID: 55
Codec ID/Hint : MP3
Duration: 1 h 37 min
Bit rate mode : Constant
Bit rate: 128 kb/s
Channel(s): 2 channels
Sampling rate : 44.1 kHz
Compression mode: Lossy
Stream size : 89.2 MiB (8%)
Alignment : Split accross interleaves
Interleave, duration: 40ms (1.00 video frame)
Interleave, preload duratio : 500ms
Writing library : LAME3.99r
Encoding settings : -m j -V 4 -q 2 -lowpass 17 -b 128

http://s41.radikal.ru/i094/1707/3d/347b268dc5d0t.jpg http://i069.radikal.ru/1707/e3/cd889b38c4d8t.jpg
http://s018.radikal.ru/i519/1707/23/858d49ae0a8at.jpg http://s013.radikal.ru/i325/1707/39/32f27bf956eat.jpg
http://s11.radikal.ru/i183/1707/6c/1f2bd3ee8651t.jpg http://s015.radikal.ru/i332/1707/34/7d0e79b6b5d9t.jpg
01. -
02.
03.
04. ,
05.
06. ,
07.
08.
09.
10.
11.
12.
13.
14.
15.
16.
17. ,
18.
19.
20.
21.
22.
23.
24. " " -


,

ExKinoRay.TV

, , , , , . . .